<?xml version="1.0" standalone="no"?>
<!DOCTYPE svg PUBLIC "-//W3C//DTD SVG 1.1//EN" "http://www.w3.org/Graphics/SVG/1.1/DTD/svg11.dtd" >
<svg xmlns="http://www.w3.org/2000/svg">
<metadata></metadata>
<defs>
<font id="monosocialiconsfontregular" horiz-adv-x="1700" >
<font-face units-per-em="2048" ascent="1638" descent="-410" />
<missing-glyph horiz-adv-x="586" />
<glyph unicode="fivehundredpx" d="M1210 708q88 0 125 -54t37 -128q0 -72 -37 -127t-125 -55q-44 0 -78 16t-58 38q-28 24 -50 56q-20 -32 -46 -56q-22 -22 -57 -38t-83 -16t-78 15t-46 33q-20 22 -28 50q-12 -28 -36 -50q-22 -18 -57 -33t-93 -15t-92 24t-52 54q-22 36 -30 80h104q4 -20 14 -36 q10 -14 25 -25t43 -11q34 0 64 30t30 66t-19 67t-63 31q-22 0 -37 -8t-25 -18q-12 -10 -20 -24h-104l58 292h278v-96h-208l-24 -110q10 10 26 18q14 6 33 12t47 6q40 0 66 -15t42 -33q20 -22 30 -48q8 30 28 54q16 20 46 37t78 17t83 -19t57 -41q26 -26 46 -60q22 34 50 60 q24 22 58 41t78 19zM850 442q22 0 43 13t37 29q20 18 36 42q-16 22 -36 42q-16 16 -37 30t-43 14q-44 0 -69 -25t-25 -61t25 -60t69 -24zM1198 442q44 0 68 24t24 60t-24 61t-68 25q-22 0 -43 -14t-37 -30q-20 -20 -36 -42q16 -24 36 -42q16 -16 37 -29t43 -13z" />
<glyph unicode="aboutme" d="M326 390v418h64v-58q22 32 54 48q32 20 74 20q50 0 78 -20q30 -18 42 -54q50 74 130 74q64 0 98 -34q34 -38 34 -106v-288h-72v264q0 42 -6 60q-10 22 -26 30q-18 12 -44 12q-44 0 -74 -30q-28 -26 -28 -92v-244h-72v272q0 46 -18 70t-58 24q-28 0 -56 -16 q-28 -18 -36 -46q-12 -30 -12 -86v-218h-72zM1296 526l74 -10q-18 -64 -64 -100q-50 -34 -122 -34q-94 0 -148 56t-54 158q0 106 56 164q54 58 142 58q84 0 138 -58t54 -160v-18h-316q2 -70 40 -106q36 -36 88 -36q42 0 68 20t44 66zM1060 640h236q-2 48 -26 78 q-36 42 -90 42q-48 0 -82 -34q-36 -36 -38 -86z" />
<glyph unicode="addme" d="M1268 714v-210h-314v-312h-210v312h-314v210h314v314h210v-314h314v0z" />
<glyph unicode="ama&#x7a;on" d="M1272 282q-22 -20 -44 -30q-84 -52 -184 -79t-196 -27q-150 0 -282 55t-234 151q-10 8 -5 15t15 1q112 -66 244 -104t274 -38q90 0 183 17t185 55q6 4 13 6t13 6q16 6 24 -6t-6 -22zM1368 378q-8 10 -51 14t-89 -10q-26 -10 -46 -24q-8 -6 -7 -11t9 -5q10 2 21 3t23 3 q28 2 55 1t37 -11q6 -6 3 -23t-9 -38t-13 -41t-13 -34q-4 -8 2 -10t14 4q34 30 50 78t18 78v6q0 12 -4 20zM1144 510q-16 -16 -42 -38t-44 -38q-12 -8 -28 -2q-28 24 -38 39t-26 37q-50 -56 -104 -74q-40 -10 -80 -10q-70 0 -119 45t-49 135q0 70 33 118t87 72q28 14 61 21 t67 11q22 4 43 5t39 3v16q0 22 -1 44t-11 40q-10 16 -28 23t-36 7h-6q-30 -4 -53 -20t-31 -50q-4 -20 -20 -22l-110 14q-4 2 -11 7t-3 17q8 48 31 81t54 54t68 31t75 12h22q40 0 88 -13t82 -45q40 -40 44 -91t4 -109v-182q0 -40 14 -63t30 -45q4 -8 5 -16t-7 -14zM944 716 v24q-22 0 -43 -2t-39 -6q-36 -10 -60 -35t-24 -73q0 -40 17 -63t51 -23q4 0 8 1t8 1q40 10 62 54q16 30 18 59t2 63z" />
<glyph unicode="aol" d="M966 1128q54 0 91 -37t37 -89t-37 -88t-91 -36q-52 0 -90 36t-38 88t38 89t90 37zM458 346l20 6q22 6 51 18t60 33t59 52t50 75q4 4 5 14t5 38q10 110 43 173t99 101l10 4l10 -6q34 -18 62 -24l16 -2v-26v-2q0 -4 2 -4q0 -12 2 -14l2 -6l8 -4q36 -12 76 -12q36 0 67 8 t53 18l18 8l54 -122l-16 -8q-56 -28 -100 -41t-84 -13q-20 0 -37 2t-35 4h-8q-4 0 -6 1t-4 1q-4 0 -7 -2t-5 -14q-2 -2 4 -6l2 -2l2 -2q4 0 6 -2q190 -94 290 -294l10 -16l-134 -76l-10 18q-10 16 -27 40t-46 50t-69 52t-94 50l-8 4q-6 0 -8 -6l-14 -18q-22 -28 -46 -57 t-58 -56t-81 -50t-113 -39l-18 -6z" />
<glyph unicode="appstorealt" d="M850 1122q108 0 203 -41t166 -112t112 -166t41 -203t-41 -204t-112 -167t-166 -112t-203 -41t-204 41t-167 112t-112 167t-41 204t41 203t112 166t167 112t204 41zM850 128q98 0 183 37t149 101t101 150t37 184t-37 183t-101 149t-149 101t-183 37t-184 -37t-150 -101 t-101 -149t-37 -183t37 -184t101 -150t150 -101t184 -37zM744 914h210v-366h156l-260 -262l-262 262h156v366z" />
<glyph unicode="appstore" d="M834 838q10 -4 12 -14t-2 -18l-288 -500q-12 -22 -32 -8l-62 34q-8 6 -11 15t3 19l286 498q4 10 14 12t18 -2zM504 270q22 -12 0 -26l-78 -54q-10 -6 -15 -3t-3 13l10 94q4 22 24 12zM914 698l90 -210h-286l134 210h62zM458 488h-108q-10 0 -17 6t-7 16v170q0 10 7 14 t17 4h238zM1348 698q24 0 24 -18v-170q0 -22 -24 -22h-104l-106 210h210zM1180 514q12 -20 -3 -36t-27 -20q-14 -6 -24 -9t-28 7q-10 4 -34 53t-53 110t-55 121t-38 88t-33 74t-39 92t-27 81t3 41q8 4 26 -20t40 -61t47 -80t47 -77q22 -36 54 -93t62 -114t53 -102t29 -55z M1216 316q-10 -4 -21 -2t-15 12l-38 58q-6 10 -4 20t12 14l36 18q22 12 36 -12l28 -56q6 -10 3 -21t-13 -15zM1228 300q40 22 59 5t25 -47q8 -36 4 -88q-4 10 -15 16t-25 12t-29 14t-25 22q-20 28 -11 44t17 22z" />
<glyph unicode="apple" d="M1112 652q0 -54 20 -90t44 -58t45 -32l21 -10q-2 -4 -17 -44t-51 -90q-30 -44 -63 -79t-83 -37q-24 0 -42 5t-35 13t-36 14t-47 6t-47 -6t-36 -13t-34 -13t-41 -8q-46 -2 -84 37t-68 83t-56 103t-37 123t-5 129t38 119t84 85t114 33q24 0 47 -6t43 -13t38 -14t32 -7t34 8 t44 16t51 14t55 4q12 0 33 -3t46 -13t50 -28t47 -48q-2 -2 -18 -13t-36 -33t-35 -56t-15 -78zM990 1002q-24 -30 -63 -50t-79 -16q-6 40 11 79t41 65q26 30 65 50t77 22q4 -42 -11 -81t-41 -69z" />
<glyph unicode="bebo" d="M896 184h-94q-76 0 -144 31t-119 83t-80 121t-29 145v470q0 40 33 66t73 26q38 0 71 -26t33 -66v-470q0 -76 43 -123t119 -47h94q38 0 72 12t59 33t40 49t15 62q0 68 -30 113t-64 45h-186q-38 0 -65 20t-27 58t27 58t65 20h186q58 0 109 -26t89 -72t60 -108t22 -134 q0 -70 -29 -132t-80 -108t-119 -73t-144 -27z" />
<glyph unicode="behance" d="M804 844q26 -38 26 -96t-26 -92q-8 -10 -18 -18t-26 -18q46 -18 66 -56q24 -36 24 -90t-26 -100q-18 -32 -40 -50q-26 -22 -66 -32q-18 -4 -38 -6t-42 -2h-260v628h278q106 -4 148 -68zM536 806v-156h96q20 0 35 7t27 15q22 16 22 60q0 22 -7 38t-23 22q-14 6 -30 10 t-38 4h-82zM536 546v-158h96q34 0 58 14q38 20 38 78q0 26 -9 39t-27 23q-10 4 -25 4h-33h-98zM1216 734q40 -20 68 -66q12 -20 20 -41t12 -49q0 -8 1 -22t1 -28q0 -18 2 -36h-288q2 -40 12 -61t30 -35q10 -8 25 -13t31 -5q18 0 32 8t26 18q6 6 11 7t9 29h106 q-2 -28 -12 -46t-26 -40q-28 -32 -65 -50t-83 -18q-80 0 -140 54t-60 176q0 114 54 178q54 60 142 60q52 0 92 -20zM1062 624q-10 -14 -17 -26t-11 -52h178q-2 40 -8 53t-20 25q-24 24 -60 24q-42 0 -62 -24zM1216 806h-210v106h210v-106z" />
<glyph unicode="bing" d="M850 828q98 0 183 -26t149 -71t101 -106t37 -129q0 -70 -37 -130t-101 -106t-149 -72t-183 -26q-96 0 -181 25t-148 69t-101 103t-40 127h-2v618h158v-378q44 30 83 50t76 32t75 16t80 4zM850 274q62 0 116 18t94 48t64 70t24 86t-24 86t-64 70t-94 48t-116 18t-117 -18 t-95 -48t-64 -70t-24 -86t24 -86t64 -70t95 -48t117 -18zM1048 498q0 -30 -16 -56t-43 -46t-63 -31t-76 -11q-42 0 -78 11t-63 31t-42 46t-15 56q0 62 57 104t141 42q82 0 140 -42t58 -104z" />
<glyph unicode="blip" d="M430 770q120 0 228 -47t188 -127t127 -187t47 -227h-172q0 84 -31 161t-89 135t-136 90t-162 32v170zM430 1070q182 0 344 -70t284 -191t192 -283t70 -344h-170q0 148 -57 279t-155 228t-229 154t-279 57v170zM378 234l52 52v156l262 -260h-156l-52 -54z" />
<glyph unicode="blogger" d="M1320 660l-2 -240q0 -62 -24 -116t-64 -94t-94 -63t-116 -23h-342q-62 0 -116 23t-95 63t-65 94t-24 116v346q0 62 24 116t65 94t95 64t116 24h208q28 -4 62 -17t66 -34t59 -50t43 -61q4 -10 8 -16t7 -16t6 -26t7 -42l7 -49t17 -33q8 -8 27 -10t39 -2t38 -1t24 -7l14 -10 l8 -16zM682 822q-24 0 -41 -17t-17 -41q0 -22 17 -39t41 -17h164q24 0 41 17t17 39q0 24 -17 41t-41 17h-164zM1018 368q22 0 39 17t17 39q0 24 -17 41t-39 17h-336q-24 0 -41 -17t-17 -41q0 -22 17 -39t41 -17h336z" />
<glyph unicode="coroflot" d="M1056 612q80 0 136 -56t56 -136q0 -38 -14 -72t-39 -59t-58 -41t-71 -18q8 26 8 62q0 84 -47 151t-123 95q28 34 67 54t85 20zM812 498q42 0 80 -16t66 -44t44 -66t16 -80t-16 -80t-44 -66t-66 -44t-80 -16t-80 16t-66 44t-44 66t-16 80t16 80t44 66t66 44t80 16z M750 326q20 0 33 13t13 33q0 18 -13 31t-33 13t-33 -13t-13 -31q0 -20 13 -33t33 -13zM728 540q2 66 -9 121t-30 93t-45 58t-56 18q-58 -6 -100 -2t-36 34q2 14 14 17t25 3t25 4t14 24q2 18 -1 32t-4 26t5 22t26 20q18 10 31 5t20 -21t9 -39t0 -47q68 16 131 -10t113 -71 t87 -94t55 -79q-10 -4 -19 -6t-19 -6q-50 78 -96 124t-86 70t-74 29t-58 3q44 -34 71 -81t42 -93t20 -85t5 -55q-36 -4 -60 -14z" />
<glyph unicode="daytum" d="M510 116h-104v314h104v-314zM668 116h-106v522h106v-522zM824 116h-104v418h104v-418zM982 116h-106v732h106v-732zM1138 116h-104v522h104v-522zM1294 116h-104v836h104v-836zM1294 1006q0 -2 -2 -2h-884l-2 2v102q0 2 2 2h884l2 -2v-102z" />
<glyph unicode="delicious" d="M1268 600h-418v418h418v-418v0zM850 182h-420v418h420v-418v0z" />
<glyph unicode="designbump" d="M796 776v104h-104l210 210l208 -210h-104v-312zM796 358v210h210zM796 254h106v-106h-106v106zM850 620h-106v-472h-208v472h-106l210 208zM1268 306h-106v-158h-208v158h-104l208 208z" />
<glyph unicode="designfloat" d="M596 494q10 -40 27 -64t37 -39t42 -25t42 -20v-104q-58 12 -100 31t-72 49t-49 72t-31 100h104zM744 854q-40 -22 -84 -73t-64 -129h-104q24 116 79 198t173 108v-104zM1104 652q-42 160 -202 202v104q118 -26 199 -107t107 -199h-104zM1064 600q0 -46 -17 -85t-46 -68 t-68 -46t-83 -17q-46 0 -85 17t-68 46t-46 68t-17 85q0 44 17 83t46 68t68 46t85 17q44 0 83 -17t68 -46t46 -68t17 -83zM850 432q70 0 118 49t48 119t-48 118t-118 48t-119 -48t-49 -118t49 -119t119 -49zM850 1070q98 0 183 -37t149 -101t101 -149t37 -183t-37 -184 t-101 -150t-149 -101t-183 -37t-184 37t-150 101t-101 150t-37 184t37 183t101 149t150 101t184 37zM850 176q88 0 165 33t134 91t90 135t33 165t-33 165t-90 135t-134 91t-165 33t-165 -33t-135 -91t-91 -135t-33 -165t33 -165t91 -135t135 -91t165 -33zM902 346 q38 10 71 20t58 25t44 39t29 64h104q-26 -118 -108 -173t-198 -79v104z" />
<glyph unicode="deviantart" d="M838 462l-432 -124q-32 78 -28 152q2 32 11 65t30 64t56 60t89 51l-54 112l134 14l46 -90h6q176 30 295 8t193 -62q86 -46 136 -112l-432 -124l-100 202q36 8 70 6t64 -6l42 -80l146 40q-54 34 -116 56q-54 18 -124 24t-150 -16zM668 518l-66 132q-46 -30 -63 -60 t-21 -54q-4 -28 6 -56z" />
<glyph unicode="diggalt" d="M484 940h104v-156v-366h-262v366h158v156zM484 522v156h-54v-156h54zM744 836h-104v104h104v-104v0zM744 418h-104v366h104v-366v0zM796 784h262v-366v-52v-106h-262v106h158v52h-158v366zM902 522h52v156h-52v-156zM1110 784h262v-366v-52v-106h-262v106h158v52h-158 v366zM1216 522h52v156h-52v-156z" />
<glyph unicode="digg" d="M1372 834v-306h-104v-312h-462v312h-44h-86h-88v-52q54 -4 97 -41t43 -89v-32v-66q0 -14 -10 -23t-26 -9h-278q-16 0 -26 9t-10 23v98q0 26 14 49t37 40t51 28t56 13v52h-210v312q40 34 82 62q36 22 77 42t77 20q34 0 76 -20t76 -42q40 -28 82 -62v-6h54v218h366v-218 h156zM640 346q0 18 -15 31t-37 13h-70q-22 0 -37 -13t-15 -31v-44h174v44zM692 802q-38 34 -74 55t-56 21t-56 -21t-76 -55v-168h262v168zM954 790h156v158h-156v-158zM1268 746h-52v-60h-366v52h-54v-104h106v-314h112v156h44v-156h104v314h106v112z" />
<glyph unicode="dribble" d="M850 126q-98 0 -184 37t-150 101t-101 150t-37 184q0 96 37 182t101 150t150 101t184 37q96 0 182 -37t150 -101t101 -150t37 -182q0 -98 -37 -184t-101 -150t-150 -101t-182 -37zM622 278q98 -72 228 -72q64 0 122 20q-12 146 -58 284q-90 -30 -165 -89t-127 -143z M992 530q20 -64 34 -132t22 -138q72 42 121 109t65 151q-36 10 -71 15t-69 5q-46 0 -102 -10zM458 580q6 -144 104 -248q58 90 142 154t184 98q-8 26 -22 56q-86 -32 -175 -47t-179 -15h-25t-29 2zM1094 618q72 0 148 -18q0 120 -70 218q-108 -94 -234 -150q8 -16 14 -32 t14 -32q32 8 64 11t64 3zM462 658q12 -2 24 -2h26q164 0 318 54q-68 126 -160 236q-84 -44 -139 -120t-69 -168zM748 976q46 -56 85 -115t71 -121q58 26 112 61t106 77q-56 54 -126 83t-146 29q-26 0 -52 -4t-50 -10z" />
<glyph unicode="drupal" d="M1058 956q10 -8 44 -32t71 -69t66 -111t29 -156t-34 -164t-91 -126t-132 -81t-159 -29t-160 31t-134 85t-93 129t-35 163t30 153t68 108t74 68t48 31q30 16 56 28t62 40q16 14 29 37t19 69q24 -28 51 -58t49 -46q34 -22 69 -35t73 -35zM528 780q4 -2 27 2t75 32 q52 30 79 52t55 52q16 16 20 25t4 13q0 6 -12 10q-8 4 0 6l14 7t14 9q4 2 15 13t13 27q0 32 -8 62q-6 -46 -19 -64t-33 -34q-30 -22 -57 -36t-33 -18q-10 -4 -29 -15t-42 -27t-46 -37t-39 -47q-10 -16 -5 -23t7 -9zM1062 280q4 4 4 8v8q-4 10 -14 2q-14 -10 -44 -20t-74 -10 q-46 0 -69 8t-37 18q-2 2 -8 2t-14 -6q-4 -4 -4 -9t4 -9q32 -28 76 -31t82 1t66 19t32 19zM902 356q-16 -12 -6 -22q4 -8 26 10q12 10 23 16t35 6t32 -7t12 -15q8 -14 14 -10q12 2 8 18q-4 6 -8 16t-14 16q-8 6 -19 7t-23 1q-10 0 -18 -1t-20 -5t-23 -13t-19 -17zM1142 378 q18 -2 31 8t29 32q16 24 24 57t8 55t-12 48t-46 26q-16 0 -40 -14t-49 -30t-48 -31t-41 -15q-22 0 -46 17t-53 36t-64 36t-75 17q-32 0 -59 -12t-48 -31t-33 -44t-12 -51q-4 -60 40 -88q14 -10 32 -15t58 -5q34 0 72 17t73 38t66 38t51 17q16 0 35 -17t39 -36t38 -36t30 -17 z" />
<glyph unicode="ebay" d="M1476 862l-168 -312v-164h-128v164l-38 78v80q0 40 -17 70t-81 40l-22 44h138l90 -202l98 202h128zM998 528q20 0 31 12t14 30t3 37v33q-18 -2 -33 -3t-27 -5t-18 -16t-6 -34q0 -18 6 -36t30 -18zM1002 820h22t20 -2l98 -190v-88q0 -16 1 -32t3 -32h-92l-4 44 q-16 -24 -37 -37t-55 -13q-16 0 -22 2v44q0 36 -4 80t-28 70q24 20 62 24t80 2v26q0 22 -6 36t-34 14q-26 0 -31 -16t-5 -36h-96q0 60 36 82q30 22 92 22zM840 518q0 50 -4 82t-36 32q-30 0 -35 -32t-5 -82q0 -64 7 -92t33 -28t33 28t7 92zM866 578q0 -40 16 -69t54 -37 q-2 -24 -6 -47t-14 -42t-28 -31t-48 -12q-60 0 -82 44h-2v-36h-92v68q2 0 2 2q64 26 68 76h-70v34h72q4 46 -8 82t-64 58v160h96v-178h2q16 22 34 30t44 8q22 0 37 -6t27 -16q-38 -26 -38 -88zM478 644q-30 0 -46 -8t-23 -18t-8 -23t-1 -21h160q0 10 -1 22t-8 23t-24 18 t-49 7zM664 494v-78q-24 -10 -50 -16q-28 -6 -62 -10t-74 -4q-86 0 -136 12t-77 33t-35 50t-8 63q0 30 7 58t34 48t77 32t138 12q42 0 75 -3t59 -7q28 -6 52 -16v-140h-264q0 -14 1 -29t9 -28t24 -22t44 -9q48 0 62 17t14 37h60h50z" />
<glyph unicode="email" d="M630 596l-252 -180v360zM1320 932l-470 -336l-472 336v122h942v-122zM1320 776v-360l-252 180zM1014 558l306 -220v-120h-942v120l306 220l166 -118z" />
<glyph unicode="emberapp" d="M1186 498l28 32q-10 -42 -27 -84t-47 -78q-94 -122 -292 -128q-218 8 -324 208v10q4 36 15 91t51 107q34 46 79 87t89 79q42 34 76 65t54 61q38 -30 86 -71t91 -89t74 -98t35 -96zM1252 774q-2 10 6 -31t9 -109t-12 -150t-57 -154t-128 -123t-222 -55q-38 2 -95 13 t-117 48t-115 109t-91 194q6 -8 14 -12q14 -10 28 -4q8 2 10 27t8 63t20 83t46 89q40 54 93 100t101 87t83 77t37 68q90 -66 164 -136q64 -60 118 -134t64 -144q12 16 20 32q8 14 13 30t3 32zM1216 542q0 24 4 45t2 43l4 -2l-40 -48l-12 96q-4 46 -35 96t-74 98t-91 90 t-86 72q-20 -30 -54 -62t-76 -66q-44 -38 -88 -78t-78 -86q-40 -54 -51 -109t-15 -91q-4 -22 -5 -37t-11 -25v-2q-4 -4 -4 -6t-6 -6q6 -14 21 -27t15 -27q40 -104 123 -159t197 -59q100 4 167 36t115 92q38 48 58 106t20 116z" />
<glyph unicode="etsy" d="M692 992v-366h232q42 0 69 8t43 22q18 16 28 51t12 75h34v-366h-34q-8 76 -20 98q-12 26 -42 42q-30 18 -90 18h-232v-296q0 -36 5 -57t9 -29t11 -15t13 -11q16 -10 60 -10h166q40 0 70 4t50 10q18 6 36 19t36 31q22 24 45 64t45 80h30l-84 -262h-754v54h36q16 0 33 -2 t33 8q10 6 23 12t17 18t10 34t6 62v574q0 50 -9 75t-19 35q-12 16 -38 18t-56 2h-36v52h754l10 -210h-28q-8 40 -16 64t-18 40q-18 28 -54 44q-22 10 -102 10h-284z" />
<glyph unicode="facebook" d="M982 818q-14 0 -34 -13t-20 -39v-52h158v-208h-158v-420h-208v420h-158v208h158v104q0 40 18 78t51 67t77 47t96 18h176v-210h-156z" />
<glyph unicode="feedburner" d="M1214 478q50 -28 78 -60t28 -70q0 -42 -37 -79t-101 -65t-150 -44t-182 -16q-98 0 -184 16t-150 44t-101 65t-37 79q0 40 31 73t85 61q40 -132 129 -205t209 -75q62 0 123 22t112 59t90 88t57 107zM966 874q42 -24 80 -52t67 -66t47 -90t18 -124q0 -64 -30 -124t-78 -108 t-111 -77t-129 -29q-68 0 -126 31t-100 87t-66 135t-24 177q0 70 22 150t57 154t81 136t94 96q-22 -56 -17 -95t21 -73t35 -66t26 -73t-5 -95t-58 -130q48 -14 89 -2t69 44t39 81t-1 113zM830 272q102 2 165 48t87 111t7 134t-79 117q-22 -94 -68 -159t-122 -63 q-34 0 -67 21t-56 59t-32 90t5 112q-64 -106 -72 -193t21 -149t86 -96t125 -32z" />
<glyph unicode="flickr" d="M1320 598q0 -44 -17 -82t-45 -67t-66 -45t-82 -16q-42 0 -80 16t-67 45t-45 67t-16 82t16 82t45 66t67 44t80 16q44 0 82 -16t66 -44t45 -66t17 -82zM798 598q0 -44 -17 -82t-45 -67t-66 -45t-82 -16t-82 16t-67 45t-45 67t-16 82t16 82t45 66t67 44t82 16t82 -16t66 -44 t45 -66t17 -82z" />
<glyph unicode="foodspotting" d="M484 534h-106v524h106v-524zM402 122v308h190v-52h-134v-72h116v-54h-116v-130h-56zM626 236q0 30 12 58q16 28 38 42t54 14q44 0 74 -32q30 -34 30 -84q0 -52 -30 -84q-30 -34 -74 -34q-22 0 -54 14q-22 14 -38 42q-12 26 -12 64zM680 234q0 -32 14 -52q14 -18 36 -18 t34 18q14 16 14 52q0 34 -14 50q-12 18 -34 18t-36 -18q-14 -22 -14 -50zM864 236q0 30 12 58q12 26 38 42q22 14 52 14q46 0 76 -32q30 -34 30 -84q0 -52 -30 -84q-30 -34 -74 -34q-16 0 -28 4t-26 10q-26 16 -38 42t-12 64zM918 234q0 -36 14 -52q14 -18 36 -18 q18 0 34 18q14 16 14 52q0 34 -14 50q-16 18 -34 18q-22 0 -36 -18q-14 -16 -14 -50zM1298 122h-50v32q-14 -20 -30 -28q-16 -10 -34 -10q-34 0 -58 32q-26 32 -26 86q0 56 24 86t62 30q34 0 58 -30v110h54v-308zM1156 238q0 -36 8 -52q10 -22 36 -22q20 0 32 16 q12 18 12 52q0 38 -12 56t-32 18t-32 -18q-12 -16 -12 -50zM1216 1058q44 0 74 -31t30 -73v-314q0 -44 -30 -75t-74 -31h-524q-42 0 -73 31t-31 75v314q0 42 31 73t73 31h106l52 104h208l52 -104h106zM954 588q44 0 82 16t66 44t45 66t17 82t-17 82t-45 66t-66 45t-82 17 t-82 -17t-67 -45t-45 -66t-16 -82t16 -82t45 -66t67 -44t82 -16zM1058 796q0 -44 -30 -74t-74 -30t-74 30t-30 74t30 74t74 30t74 -30t30 -74z" />
<glyph unicode="forrst" d="M1280 170h-388v172l174 86v42l-174 -86v86l86 44v42l-86 -42v84h-86v-170l-130 42v-42l130 -44v-214h-388l432 942l430 -942v0z" />
<glyph unicode="foursquare" d="M1320 1010v-14v-32v-266v-42l-200 -160l30 -32l-300 -316l-260 274q-44 0 -82 19t-67 49t-46 71t-17 87q0 48 17 89t47 72t69 49t83 18q70 0 126 -43t78 -111l52 56l130 -134l306 328zM1286 926l-444 -482l-76 136q12 30 12 68q0 40 -14 76t-39 63t-59 42t-72 15t-72 -15 t-59 -42t-39 -63t-14 -76t14 -75t39 -62t59 -42t72 -15q16 0 31 4t31 8l180 -172l450 374v258z" />
<glyph unicode="friendsfeed" d="M910 768q0 48 16 89t44 72t66 49t80 18h136v-152h-136q-20 0 -37 -21t-17 -55v-90h152v-152h-152v-366h-152v366h-4h-76h-76v-366h-154v366h-152v152h152v90q0 48 16 89t44 72t66 49t80 18h138v-152h-138q-20 0 -36 -21t-16 -55v-90h76h76h4v90z" />
<glyph unicode="friendstar" d="M1294 788q18 -22 24 -65t-4 -99q-6 -38 -32 -92t-76 -105t-124 -89t-174 -40h-10q-126 0 -209 79t-117 233q-10 50 -42 79t-54 29h-98v98h134q38 0 70 -16t57 -40t43 -52t28 -52q4 -8 6 -15t6 -17q12 -30 17 -64t22 -64t53 -52t110 -28q70 -4 115 24t72 70t39 87t16 75 q12 64 26 96t60 36h6q22 0 36 -16zM852 614q-16 2 -26 10t-16 18q-16 26 -21 61t5 69q14 46 31 54t31 8q16 0 32 -16t29 -43t11 -57q-2 -40 -18 -73t-50 -33q-4 0 -8 2zM1022 634q-10 0 -20 10t-17 29t-11 40t-5 43t-1 40q4 46 14 66t32 24h4q14 0 28 -12t24 -31t17 -43 t7 -50q0 -112 -70 -116h-2z" />
<glyph unicode="gdgt" d="M432 972l52 52h574l52 -52v-308l158 308v-314l-158 -262v-260l-52 -54h-522l-52 54v104h470v156h-470l-52 52v524zM588 554h366v314h-366v-314z" />
<glyph unicode="github" d="M850 532q60 0 112 -18t91 -48t62 -70t23 -86t-23 -86t-62 -70t-91 -47t-112 -17t-112 17t-91 47t-62 70t-23 86q0 54 32 100t84 76q-10 22 -15 45t-5 47q0 52 22 102q-40 32 -64 79t-24 103q0 48 18 91t50 75t75 51t93 19q68 0 126 -40l170 94v-158l-82 -44 q14 -12 23 -39t9 -49q0 -48 -19 -91t-52 -75t-76 -51t-93 -19h-8q-4 0 -6 -17t-2 -31t2 -26t6 -22q6 0 12 1t12 1zM834 972q-46 0 -79 -32t-33 -78t33 -78t79 -32t79 32t33 78t-33 78t-79 32zM850 226q54 0 91 25t37 59q0 36 -37 61t-91 25q-52 0 -90 -25t-38 -61 q0 -34 38 -59t90 -25z" />
<glyph unicode="githubalt" d="M1072 570q28 0 49 -24t29 -52q14 -42 9 -86t-37 -80q-22 -24 -50 -24q-30 0 -51 24t-31 52q-10 42 -5 86t35 80q24 24 52 24zM628 570q28 0 49 -24t31 -52q12 -42 7 -86t-37 -80q-22 -24 -50 -24q-30 0 -51 24t-31 52q-10 42 -5 86t35 80q24 24 52 24zM1332 814 q94 -108 94 -276q0 -144 -42 -230q-28 -52 -74 -91t-98 -59q-26 -10 -55 -19t-63 -15t-63 -9t-55 -5t-55 -3t-61 -1h-52t-46 2t-48 3t-54 5q-54 6 -106 22q-72 20 -139 60t-99 110q-44 86 -44 230q0 164 94 276q-18 56 -18 116q0 80 36 152q76 0 130 -28q30 -14 62 -35 t70 -49q102 24 214 24q100 0 194 -22q70 56 130 84q54 26 132 26q34 -74 34 -152q0 -60 -18 -116zM1192 258q34 28 56 73t22 105q0 84 -48 142q-44 58 -128 58q-16 0 -49 -3t-87 -11q-24 -4 -52 -6t-56 -2q-30 0 -58 2t-52 6q-52 8 -85 11t-49 3q-84 0 -130 -58 q-48 -58 -48 -142q0 -60 22 -105t56 -73q36 -26 84 -40q52 -16 98 -21t102 -5h118q58 0 103 5t97 21q48 14 84 40z" />
<glyph unicode="googlebu&#x7a;&#x7a;" d="M446 788q64 84 171 132t233 48q70 0 139 -16t127 -50l-400 -368zM528 184q-22 0 -39 2t-29 6q26 16 45 44t33 56l2 6l330 302l294 -280q-64 -46 -145 -70t-169 -24q-34 0 -66 3t-64 11l-10 2l-10 -4q-82 -54 -172 -54zM910 638l254 234q76 -52 116 -124t40 -150 q0 -140 -114 -242zM508 342q-130 108 -130 256q0 72 38 144l260 -246z" />
<glyph unicode="googleplus" d="M776 622q0 -30 30 -55t65 -55t65 -73t30 -109q0 -102 -88 -180q-98 -82 -266 -82q-46 0 -96 10t-94 33t-72 61t-28 94q0 42 22 86q22 40 62 69t92 45q98 30 194 32q-42 50 -42 94q0 16 6 28q2 4 4 13t4 13q-12 0 -23 -1t-21 -1q-98 0 -162 62q-68 62 -68 156q0 88 60 158 q60 72 150 90q30 6 59 10t59 4h278l-86 -50h-86q48 -32 70 -80q24 -52 24 -108q0 -46 -14 -83t-36 -59q-32 -34 -62 -61t-30 -61zM682 676q62 0 89 38t27 102q0 80 -40 164q-20 40 -54 66t-76 26q-58 0 -90 -44t-32 -104q0 -36 11 -80t34 -81t56 -62t75 -25zM674 120 q36 0 72 8t65 25t46 45t17 70q0 14 -2 27t-6 23t-12 22q-8 10 -13 18t-17 20q-8 6 -18 16q-4 2 -8 6t-12 10l-20 14q-6 4 -20 14l-20 14q-4 0 -13 1t-19 1q-68 0 -134 -20q-52 -16 -88 -51t-36 -95q0 -44 22 -77t60 -53q70 -38 156 -38zM1378 962v-82h-164v-162h-80v162 h-162v82h162v162h80v-162h164z" />
<glyph unicode="googletalk" d="M850 1050q108 0 203 -30t166 -81t112 -119t41 -146q0 -110 -79 -199t-205 -135q104 46 160 127t56 183q0 76 -34 143t-95 118t-144 81t-179 30t-182 -29t-149 -80t-100 -118t-37 -141q0 -44 12 -82q40 -86 130 -152t210 -94h2q-6 -24 -14 -52q-10 -24 -24 -54t-38 -62 q82 6 143 32t101 54q48 34 80 74q-46 -94 -121 -139t-145 -59q-82 -18 -172 -8q56 36 88 88t48 94q-126 28 -214 102t-122 170q0 2 -4 10q-8 24 -13 48t-5 50q0 78 41 146t112 119t167 81t204 30zM820 954q84 0 158 -23t128 -63t86 -93t32 -113q0 -86 -60 -155t-158 -105 q68 44 108 106t40 136q0 58 -27 111t-73 94t-109 68t-137 35q4 2 12 2z" />
<glyph unicode="gowallapin" d="M850 1046q70 0 131 -27t107 -73t73 -107t27 -131q0 -60 -20 -115t-56 -98t-84 -74t-104 -43l-74 -288l-74 288q-58 12 -106 43t-83 74t-55 98t-20 115q0 70 26 131t72 107t108 73t132 27zM850 456q52 0 98 20t80 54t54 80t20 98t-20 98t-54 80t-80 54t-98 20t-98 -20 t-80 -54t-54 -80t-20 -98t20 -98t54 -80t80 -54t98 -20zM988 708q0 -58 -40 -99t-98 -41t-99 41t-41 99t41 99t99 41t98 -41t40 -99z" />
<glyph unicode="gowalla" d="M726 340q-10 -44 -10 -100t16 -104h-50q-14 52 -14 108t8 100q-18 4 -35 6t-31 6q0 -34 -10 -64q-6 -20 -27 -29t-43 -9q-36 0 -58 21t-22 55q0 58 46 99t112 89l22 14q34 24 38 57t-2 61q-42 -58 -78 -94t-67 -55t-55 -25t-40 -6q-48 0 -76 34q-32 38 -22 90q6 34 30 69 t56 66t65 58t55 43q-30 24 -65 56t-64 67t-47 71t-18 68q0 46 38 66q38 24 76 24q28 0 52 -12t44 -28q20 82 56 109t68 27h10q38 -4 62 -34q20 -26 26 -68t5 -90t-7 -100t-12 -96l-2 -10q240 -40 371 -148t169 -302q6 -24 6 -48q8 -8 16 -15t16 -13q10 -10 19 -17t19 -17 q-4 -30 -14 -52q-14 10 -28 23t-28 25l-2 2q-14 -76 -60 -119t-92 -63h-80l-30 26l52 10q2 0 27 7t55 27t55 56t27 94q-24 20 -44 26q-28 8 -64 15t-74 7q-102 0 -134 -66q-24 -48 -29 -103t9 -99h-50q-14 52 -7 112t33 112q46 94 178 94q40 0 79 -7t71 -17l12 -4t14 -6 q-34 182 -160 281t-364 133l-24 2l8 62q6 36 12 83t8 92t-2 82t-20 57q-8 12 -26 16q-20 2 -35 -10t-26 -32t-17 -43t-10 -43l22 -22q78 -82 66 -132q-2 -10 -9 -22t-27 -22q-16 -6 -30 -6q-40 0 -60 33t-20 73q0 8 1 30t5 52q-36 34 -67 45t-71 -13q-14 -8 -14 -26 q0 -22 19 -54t48 -66t65 -66t70 -54l34 -20l-34 -22q-20 -14 -54 -39t-68 -57t-60 -65t-32 -63q-4 -28 10 -48q16 -16 40 -16q8 0 29 5t50 25t66 59t81 109l22 36l20 -38q10 -18 18 -47t7 -60t-15 -62t-46 -55l-22 -16q-22 -16 -42 -30t-36 -28l30 -6q2 0 32 -7t66 -11 q2 8 10 24q16 34 45 51t53 17q40 0 50 -34q6 -16 4 -31t-10 -29q-24 -40 -78 -48q-20 -4 -34 -4zM740 396q0 -4 -2 -4h14q30 6 44 26q6 8 2 18h-4q-10 0 -27 -9t-27 -31zM584 1002q0 -20 8 -38t22 -18q4 0 6 1t6 1l5 5l3 3q0 6 -9 26t-41 54v-34zM550 310q4 16 4 41v37v26 q-54 -44 -54 -84q0 -26 30 -26q10 0 14 2t6 4z" />
<glyph unicode="grooveshark" d="M850 1120q108 0 203 -41t166 -112t112 -166t41 -203t-41 -204t-112 -167t-166 -112t-203 -41t-204 41t-167 112t-112 167t-41 204t41 203t112 166t167 112t204 41zM850 1068q-98 0 -183 -37t-149 -101t-101 -149t-37 -183q0 -84 28 -164q48 -4 108 11t98 49q40 36 58 83 t24 100t4 110t0 115q108 -32 183 -88t151 -140q16 -16 41 -55t56 -83t66 -87t71 -69q24 50 38 105t14 113q0 98 -37 183t-101 149t-149 101t-183 37z" />
<glyph unicode="heart" d="M1310 822q20 -62 2 -135t-57 -144t-93 -137t-111 -117t-107 -81t-82 -30q-30 0 -83 30t-112 81t-117 117t-100 137t-62 143t0 136q32 104 100 148t142 44q60 0 101 -25t66 -55t37 -55t16 -25t16 25t38 55t67 55t101 25q72 -2 140 -46t98 -146z" />
<glyph unicode="hyves" d="M1118 1062h66q8 0 19 -10t19 -25t12 -30t0 -25q-2 -8 -11 -13t-20 -10t-21 -9t-14 -10q-8 -8 -11 -25t-3 -37t1 -42t1 -40v-388q0 -16 -1 -42t5 -30q4 -6 19 -5t23 -1q18 -6 33 -33t1 -49q-4 -6 -18 -11t-28 -9q-28 -14 -73 -27t-87 -9q-12 2 -25 10t-25 20t-20 25t-6 25 q2 16 32 30q8 4 23 4t23 6q10 10 7 39t-5 51v48q0 12 1 27t-3 19t-17 5t-28 0t-30 -3t-21 -2q-54 -8 -90 -13t-82 -21q-14 -4 -38 -10t-34 -20q-4 -6 -5 -20t0 -31t3 -33t2 -26q2 -10 0 -25t2 -23q6 -10 25 -8t23 0q16 -6 32 -24t12 -40q-2 -18 -23 -31t-50 -21t-60 -12 t-53 -6q-16 -2 -25 -2t-21 4q-20 4 -40 25t-18 41q2 16 20 26t34 14q4 2 12 3t10 5q6 8 5 31t-5 41q-6 52 -8 112t-2 114q-2 64 -4 116t-2 118v43t-4 31q-6 6 -21 7t-25 5q-18 8 -28 21t-20 35v18q16 28 52 39t78 19q30 6 60 10t54 2t42 -13t26 -35q4 -10 5 -24t-5 -24 q-6 -8 -17 -12t-24 -7t-24 -7t-15 -10t-4 -24v-36q0 -56 -4 -100t0 -102q2 -8 4 -27t8 -23q10 -4 22 0t22 6q58 12 100 21t106 15q8 2 21 3l26 2t24 2t15 5q12 10 9 33t-5 37q-4 44 -4 78t4 74l5 40t-7 32q-4 6 -20 7t-22 5q-22 10 -43 31t-11 53q4 8 14 15t20 11 q34 16 71 22t77 14z" />
<glyph unicode="icondock" d="M850 114q-24 0 -44 20l-282 310q-18 20 -28 24l-12 10l-6 -14q-4 -10 -14 -25t-22 -27t-20 -12q-10 0 -17 8t-9 30l-16 150q-4 26 12 42q14 16 40 16h8l154 -14q32 -4 38 -20q2 -4 1 -10t-11 -14q-26 -28 -54 -36l-14 -6l8 -12q4 -4 11 -10t17 -16l130 -112 q16 -12 28 -12q22 0 22 34v300l-6 2q-46 24 -72 66t-26 92q0 36 14 69t39 57t59 38t72 14t72 -14t59 -38t39 -57t14 -69q0 -48 -24 -88t-68 -66l-6 -2v-298q0 -34 24 -34q8 0 15 4t11 8l124 106q20 18 26 26l10 12l-16 6q-26 8 -54 36q-14 14 -8 24q4 16 36 20l156 14h6 q26 0 40 -16q18 -18 14 -42l-16 -150q-6 -38 -26 -38q-10 0 -20 12q-14 12 -24 27t-14 25l-4 14l-14 -10q-10 -4 -26 -24l-282 -310q-20 -20 -44 -20zM850 986q-46 0 -79 -32t-33 -76q0 -46 33 -77t79 -31t78 31t32 77q0 44 -32 76t-78 32z" />
<glyph unicode="icq" d="M1302 562q28 -52 12 -116q-18 -62 -74 -92q-54 -28 -118 -8q-22 6 -44 18q12 -48 0 -90t-46 -64q-36 -22 -80 -10q-36 12 -76 54l-2 -8q-18 -64 -74 -92q-58 -28 -120 -10q-34 8 -62 30q-8 10 -15 20t-15 20q-30 58 -10 118l6 18l24 38q-46 -14 -94 -4q-26 4 -40 18 q-10 4 -15 11t-11 15q-20 38 -8 70q4 16 12 30t24 26l20 18l-10 2q-36 6 -60 30q-20 14 -32 34q-28 52 -4 106q22 56 78 86q58 30 118 16l32 -10l-10 14q-30 52 -20 112q8 56 52 82q38 20 80 8q50 -12 82 -62l12 -24l6 -10l2 10v2q0 30 24 53t52 39q56 26 120 12 q62 -16 90 -64l4 -6q36 -56 14 -122l-14 -34l44 10q16 2 33 2t33 -4q24 -8 34 -21t38 -33v-2q0 -18 7 -37t-1 -41q-20 -50 -88 -82q12 -6 24 -11t22 -13q12 -8 20 -19t16 -23zM970 672l-6 -6l2 -6l4 -8l166 20q12 2 23 4t21 8q50 20 64 56l2 14l-6 18q-12 24 -46 28 q-40 4 -72 -10l-16 -6zM874 938l2 -54l14 -150q20 -10 38 -22l122 146q6 10 11 19t9 21l4 28q0 26 -10 46q-18 36 -62 44q-38 16 -76 -6q-18 -10 -32 -25t-18 -35zM644 946q-2 -32 16 -70l6 -14l120 -128l20 6l-26 158q-2 12 -7 22t-9 20q-24 46 -62 56q-16 10 -30 0 q-26 -16 -28 -50zM446 666q14 -30 52 -36l12 -2l196 24q6 20 20 40l-118 84l-36 16q-40 8 -76 -12q-40 -16 -52 -56q-12 -32 2 -58zM622 458l40 34q12 10 24 22t28 24l-4 10l-10 26l-108 -20q-14 -2 -40 -16q-46 -20 -56 -54l-2 -12l4 -14q8 -16 42 -20q36 -4 70 14z M822 326q0 40 -6 76t-8 70q-10 0 -21 5t-21 9l-114 -132q-14 -16 -20 -38l-6 -30q0 -12 4 -24t8 -22q16 -32 58 -44q40 -10 74 10q34 14 50 54l2 14v52zM778 538q26 -26 62 -26t62 26q16 12 22 29t6 35q0 34 -28 62q-24 24 -62 24q-34 0 -62 -24q-14 -16 -21 -30t-7 -32 q0 -40 28 -64zM1028 306q2 36 -16 70l-8 12l-34 44l-58 56l-18 -8l-22 -8l20 -116l16 -44q24 -50 62 -58q18 -4 30 4q22 10 28 48zM1264 488q0 36 -20 58q-16 28 -50 38l-14 2l-54 -2l-152 -14l-4 -16l-10 -20l142 -114q10 -16 36 -22q38 -14 76 6t46 58z" />
<glyph unicode="identica" d="M766 1046q62 0 117 -25t96 -67t65 -98t24 -120t-24 -121t-65 -99t-96 -66t-117 -24q-68 0 -120 26l-214 -70l56 230q-24 56 -24 124q0 64 24 120t65 98t96 67t117 25zM770 522q42 0 79 16t64 44t43 66t16 82q0 42 -16 80t-43 67t-64 45t-79 16t-79 -16t-64 -45t-43 -67 t-16 -80q0 -44 14 -74l-46 -170l144 58q40 -22 90 -22zM1066 662q42 0 79 -16t64 -44t43 -66t16 -82q0 -58 -30 -107t-78 -75l-46 -138l-90 120q-70 16 -114 71t-44 129q0 44 16 82t43 66t63 44t78 16zM1116 364q26 14 41 38t15 56q0 46 -31 77t-75 31t-74 -31t-30 -77 q0 -40 24 -70t62 -36l40 -68z" />
<glyph unicode="imessage" d="M850 1068q98 0 183 -32t149 -87t101 -130t37 -159t-37 -159t-101 -131t-149 -88t-183 -32q-42 0 -82 7t-78 19q-62 -44 -158 -44q-36 0 -66 6q40 4 70 29t38 63q-90 56 -142 142t-52 188q0 84 37 159t101 130t149 87t183 32z" />
<glyph unicode="itunes" d="M850 1120q108 0 203 -41t166 -112t112 -166t41 -203t-41 -204t-112 -167t-166 -112t-203 -41t-204 41t-167 112t-112 167t-41 204t41 203t112 166t167 112t204 41zM850 126q98 0 183 37t149 101t101 150t37 184t-37 183t-101 149t-149 101t-183 37t-183 -37t-149 -101 t-101 -149t-37 -183t37 -184t101 -150t149 -101t183 -37zM1058 446q4 -40 -21 -68t-63 -32t-66 20t-32 62q-2 38 23 69t63 35q12 2 28 1t16 -5v250l-262 -60v-330v6q4 -40 -21 -68t-63 -32t-66 20t-32 64q-4 38 21 69t63 35q12 2 29 1t17 -5v360l366 74v-472v6z" />
<glyph unicode="lastfm" d="M946 456l-10 22l-90 204q-22 54 -73 88t-113 34q-42 0 -80 -16t-65 -44t-43 -65t-16 -79q0 -86 59 -145t145 -59q58 0 106 30t74 80l36 -84q-40 -48 -96 -76t-120 -28q-58 0 -109 22t-89 60t-60 90t-22 110t22 109t60 89t89 60t109 22q88 0 155 -45t103 -129q2 -4 11 -24 t22 -50t28 -66t31 -72q20 -44 43 -70t75 -28t84 25t32 67t-25 55t-71 31q-84 28 -126 61t-42 97t41 103t111 39q92 0 136 -82l-60 -30q-30 44 -80 44q-34 0 -54 -20t-20 -52q0 -42 35 -57t89 -33q74 -24 108 -57t34 -101q0 -70 -54 -117t-134 -47q-74 0 -116 35t-70 99z" />
<glyph unicode="linkedin" d="M380 882h208v-680h-208v680zM1178 840q62 -34 102 -103t40 -141v-394h-210v394q0 16 -12 36t-22 26q-16 10 -44 10t-44 -8l-86 -42v-416h-210v680h210v-32q62 28 140 26t136 -36zM484 1144q44 0 74 -30t30 -74t-30 -75t-74 -31t-74 31t-30 75t30 74t74 30z" />
<glyph unicode="meetup" d="M492 466q-18 50 -32 98t-24 96q-10 -16 -12 -37t-2 -43q-2 -24 -3 -48t-9 -40l-4 2q-8 0 -13 -1t-11 -1q-8 -2 -24 -2h-10q-4 8 -9 16t-9 16q-10 14 -18 27t-18 27q-4 -10 0 -26q2 -12 3 -23t-1 -27q-6 -4 -19 -9t-29 -5h-10q-14 46 -15 93t1 103v42q12 4 24 6t26 2 q8 0 12 -2q12 -16 22 -36t20 -42l12 -24t12 -22q12 46 23 96t37 84q0 -2 4 -2h2q14 0 20 -2q4 0 9 -1t11 -1h8q16 -34 25 -78t19 -90q8 -34 15 -69t19 -67q-2 2 -6 2q-6 0 -18 -4q-6 -2 -13 -4t-15 -4zM808 454q-30 0 -60 16t-36 44q-2 126 72 186q34 -4 56 -22 q0 -18 -2 -33t-4 -31q-4 -16 -6 -34t0 -42q-6 0 -12 -1t-14 -1q-10 0 -20 1t-20 3q-8 -14 -6 -26t8 -22q20 -24 44 -24t40 22q16 -6 18 -16q-20 -20 -58 -20zM786 636q-2 -4 -4 -10t-4 -10q-4 -10 -9 -22t-5 -28q4 -6 14 -6h8q6 16 7 38t-3 38l-2 8zM638 446q-20 0 -34 6 q-34 14 -43 50t-5 72q4 40 23 74t47 38h6q10 0 17 -2t13 -4l18 -6q6 -24 8 -62t-6 -68q-2 2 -12 2h-4q-30 0 -54 6q-12 -46 4 -70q10 -12 22 -16h6q10 0 26 4t24 4q12 0 22 -12q-16 -6 -37 -11t-41 -5zM616 578q2 0 3 -1t3 -1t3 -1t5 -1h2l4 2q4 14 3 29t-5 31 q-22 -24 -24 -56v-2h6zM1344 296q-12 4 -22 4h-14h-20q-6 16 -9 39t-5 45q-4 30 -9 58t-21 48q4 2 16 6q2 2 8 2l5 45t9 54t15 52t23 43q30 38 70 38q30 0 70 -24q22 -44 17 -81t-15 -61q-20 -40 -55 -69t-79 -39q-6 -108 16 -160zM1398 686q-32 -32 -46 -80t-22 -94 q26 8 47 31t31 51q6 16 8 40t-14 52l-2 2zM1124 456q-24 0 -38 18q-38 42 -26 174q14 -2 23 -7t19 -9q4 -4 12 -8v-19t2 -23q0 -48 6 -96q36 14 43 57t9 83v16q0 -2 4 -2h4q14 0 25 -7t21 -15q4 -34 -5 -55t-21 -41q-4 -4 -5 -9t-5 -9q-10 -8 -15 -16t-13 -18l-4 -6 q-16 -8 -36 -8zM928 440q2 22 1 41t-3 39q-2 12 -3 25t-1 27l-12 2q-16 2 -30 3t-24 7q0 14 6 20q2 6 16 6q4 0 8 -1t8 -1h18q4 22 2 46t-6 50q-6 44 -9 87t9 81q2 -2 6 -2h2q22 0 35 -8t21 -18q-6 -32 -6 -67t2 -71q4 -26 4 -49t-2 -43v-4h6q8 0 9 6t1 10q0 8 4 8 q12 -4 20 -10t16 -16q4 -4 8 -9t8 -9q-6 -4 -18 -6t-24 -2q-14 0 -30 -4q-2 -38 0 -76v-58q-6 -2 -13 -2h-13q-4 0 -8 -1t-8 -1z" />
<glyph unicode="metacafe" d="M1096 274l-138 -106l54 172l-138 104h170l52 160l54 -160h170l-138 -104l52 -172zM972 330q-4 -12 -16 -49t-26 -77l-550 396h548l168 510l212 -628h-134q-4 0 -17 36t-27 80q-16 52 -34 118q-18 -66 -34 -118q-14 -44 -26 -80t-16 -36h-250q50 -36 90 -68q34 -28 67 -52 t45 -32z" />
<glyph unicode="mixx" d="M1130 528q0 -6 1 -12t1 -12q0 -64 -24 -119t-64 -96t-95 -65t-117 -24q-90 0 -162 49t-108 127q28 -94 105 -154t177 -60q60 0 114 23t94 64t63 95t23 116q0 38 -8 68zM856 278q-62 -10 -118 6t-96 50q34 -40 82 -62t106 -22q84 0 147 47t85 117q-28 -52 -82 -89 t-124 -47zM850 364q-34 -14 -69 -16t-63 6q18 -10 41 -17t49 -7q64 0 109 39t47 95q-16 -32 -45 -58t-69 -42zM814 442q-4 0 -12 11t-16 33l-198 554q-6 18 4 38q8 18 28 24q6 2 16 2q36 0 46 -38l134 -570q6 -22 5 -37t-5 -17h-2z" />
<glyph unicode="mobileme" d="M1250 608q42 -14 82 -44t40 -92q0 -30 -14 -65t-37 -65t-55 -49t-68 -19h-696q-36 0 -68 17t-56 45t-38 64t-14 72q0 38 17 65t42 45t54 26t53 8q18 0 26 -2v10q0 68 43 116t103 48q32 0 59 -14t49 -38q22 72 88 119t150 47q50 0 96 -19t79 -51t53 -75t20 -91 q0 -16 -2 -30t-6 -28z" />
<glyph unicode="mrwong" d="M1052 410q16 -10 32 -21t28 -33t18 -59t2 -97q-2 -36 -12 -56t-20 -21t-19 17t-9 56q-2 86 -19 122t-53 38q-14 0 -38 1t-54 1v-103t-2 -69q0 -24 -10 -37t-21 -15t-20 6t-9 26v194h-66t-40 -2q-24 -4 -51 -46t-21 -128q2 -32 -7 -47t-21 -15t-21 16t-9 48q-2 30 0 58 q2 24 5 49t9 41q12 32 52 63t102 33h68v128q-40 4 -77 23t-47 63q-4 24 -7 56t-7 70q-30 0 -61 -2t-59 -2h-49t-29 2q-10 2 -12 13t1 23t11 22t20 10q28 4 78 3t96 -1q-4 60 -3 110t3 60q4 22 12 40t24 14t29 -22t7 -70q-2 -22 -4 -58t-4 -76h16h176v174q0 20 18 34t32 -14 q4 -8 7 -28t5 -47t3 -58t1 -61q46 0 80 -1t44 -3q28 -2 47 -7t19 -23q0 -10 -9 -15t-24 -8t-32 -4t-29 -1h-35t-59 -2q0 -28 -1 -49t-1 -31q-4 -40 -23 -77t-61 -49q-14 -4 -38 -8q0 -20 1 -54t1 -74q48 -2 89 -6t57 -14zM768 770q2 -46 10 -82t24 -46q20 -12 47 -14t51 3 t42 18t18 33v90q-54 0 -106 -1t-86 -1zM424 402q-34 -8 -41 1t-3 23q6 16 24 38q48 20 90 38q36 16 69 30t49 20q14 6 35 12t36 8t20 -6t-13 -28q-16 -22 -47 -43t-69 -39t-77 -32t-73 -22zM1320 454q2 -14 -5 -18t-18 -3t-25 4t-26 5t-34 11t-46 20t-45 20t-29 11l-20 5 t-23 9t-16 15t-1 23q8 22 33 21t81 -23q28 -12 58 -25t55 -25t42 -24t19 -26z" />
<glyph unicode="msn" d="M1044 260q-34 24 -64 70q-2 22 -5 50t-13 62q22 -12 61 -24t97 -12q16 0 31 1t31 3q52 8 91 41t67 83q6 -42 0 -86t-20 -85t-35 -75t-41 -58q-24 -28 -40 -35t-26 -7q-22 0 -54 19t-80 53zM844 516q-26 58 -38 106t-16 82q-4 14 -4 25v19v2q0 4 1 6t1 6q2 6 4 6 q4 0 12 -9t24 -33t37 -66t49 -106q30 -74 40 -135t12 -93v-16q-16 10 -49 60t-73 146zM1178 436q-16 -2 -29 -3t-29 -1q-76 0 -117 20t-49 26q-6 20 -13 39t-15 41q-16 40 -32 72l-30 60q70 40 164 40q48 0 95 -11t87 -29t70 -42t42 -52q4 -4 5 -10t5 -12q-28 -56 -65 -93 t-89 -45zM782 368q-24 0 -55 10t-69 36q-10 44 -6 90t32 88q28 40 53 55t45 19q8 -34 20 -74t30 -82q8 -22 16 -40t18 -36q-10 -20 -25 -38t-35 -24q-8 -4 -24 -4zM778 692q-24 -4 -54 -22t-62 -64q-26 -40 -33 -84t-1 -86q-58 44 -126 130q-82 110 -123 180t-58 112t-16 59 t3 21q2 6 20 6q24 0 59 -11t75 -28t80 -39t76 -44q42 -28 83 -56t75 -68q0 -4 2 -6zM1394 852q-4 -62 -15 -125t-33 -119q-16 32 -47 59t-74 47t-94 31t-103 11q-98 0 -178 -42q-4 8 -8 12q18 62 64 127t102 119t115 93t105 49q10 2 17 3t15 1q42 0 74 -32q32 -34 48 -97 t12 -137zM948 296q2 -22 -1 -50t-7 -54t-10 -44t-12 -22q-2 -2 -8 -2q-26 0 -55 20t-56 47t-50 55t-35 46q-26 32 -44 84q62 -36 112 -36q18 0 34 6q22 10 37 26t27 36q18 -34 35 -58t31 -38q0 -4 1 -8t1 -8z" />
<glyph unicode="myspace" d="M558 862q-34 0 -58 24t-24 58t24 58t58 24t58 -24t24 -58t-24 -58t-58 -24zM766 836q-46 0 -77 31t-31 77t31 77t77 31t77 -31t31 -77t-31 -77t-77 -31zM1040 802q-58 0 -100 42t-42 100t42 99t100 41t99 -41t41 -99t-41 -100t-99 -42zM1044 748q40 0 76 -15t63 -41 t43 -61t16 -75v-360h-418v210h-208v156h-158v162q0 40 30 70t72 30q34 0 61 -21t35 -55q42 52 112 52q50 0 88 -31t52 -77q26 26 61 41t75 15z" />
<glyph unicode="newsvine" d="M902 74h-104v220l-126 94q-16 -10 -34 -10q-32 0 -53 21t-21 53q0 30 21 52t53 22q30 0 51 -22t21 -52q0 -4 -1 -6t-1 -6l90 -68v220l-126 94q-16 -10 -34 -10q-32 0 -53 21t-21 53q0 30 21 52t53 22q30 0 51 -22t21 -52q0 -4 -1 -6t-1 -6l90 -68v208l-128 92 q-14 -8 -32 -8q-32 0 -53 21t-21 53q0 30 21 52t53 22q30 0 51 -22t21 -52q0 -4 -1 -7t-1 -7l90 -66v164h104v-312l88 66q0 4 -1 5t-1 5q0 30 21 52t53 22q30 0 52 -22t22 -52t-21 -52t-53 -22q-20 0 -36 10l-124 -90v-206l88 66q0 2 -1 4t-1 4q0 32 21 53t53 21 q30 0 52 -21t22 -53q0 -30 -21 -52t-53 -22q-20 0 -38 12l-122 -92v-218l88 66q0 2 -1 4t-1 4q0 30 21 52t53 22q30 0 52 -22t22 -52t-21 -52t-53 -22q-20 0 -38 12l-122 -90v-74z" />
<glyph unicode="paypal" d="M960 798h-124l-54 -246h40l44 198h124q32 0 56 -18q-8 28 -30 47t-56 19zM1270 838q30 -36 44 -87t-2 -121q-14 -66 -47 -123t-81 -98t-106 -65t-124 -24h-180l-60 -264h-254l10 50h214l60 264h182q64 0 123 23t106 65t80 98t47 122q10 52 7 89t-19 71zM1000 1046 q48 0 96 -19t83 -56t51 -94t0 -133q-14 -66 -47 -120t-80 -92t-106 -59t-123 -21h-180l-62 -248h-254l192 842h430zM992 774q14 50 -12 87t-72 37h-124l-54 -248h118q48 0 91 37t53 87z" />
<glyph unicode="photobucket" d="M1320 912q22 0 37 -16t15 -38v-522q0 -22 -15 -37t-37 -15h-156h-54h-72q-86 -52 -188 -52q-106 0 -188 52h-282q-22 0 -38 15t-16 37v522q0 22 16 38t38 16q0 22 15 37t37 15h104q22 0 37 -15t15 -37h52h22q40 24 88 38t100 14t99 -14t89 -38h282zM594 336 q-52 50 -81 118t-29 144t29 143t81 117h-6h-52h-104h-52v-522h52h162zM808 286q10 -2 21 -2h21h21t21 2q4 2 10 2l20 4t20 6q24 6 38 14q2 2 4 2t4 2q10 4 18 9t16 11q64 42 103 110t39 152q0 82 -39 150t-103 110q-8 6 -16 11t-18 9q-4 4 -8 4q-10 4 -19 8t-19 8 q-16 4 -40 8q-4 0 -5 1t-5 1q-10 2 -21 3t-21 1t-21 -1t-21 -3q-4 0 -6 -1t-4 -1q-10 -2 -20 -3t-20 -5l-20 -8l-20 -8q-2 0 -6 -4q-10 -4 -18 -9t-18 -11q-64 -42 -102 -110t-38 -150q0 -84 38 -152t102 -110q10 -6 18 -11t18 -9q2 -2 3 -2t3 -2q18 -8 40 -14q22 -8 40 -10 q6 0 10 -2zM1320 858h-52h-142h-20q52 -50 81 -117t29 -143t-29 -144t-81 -118h4h16h22h16h104h52v522zM1058 598q0 88 -60 148t-148 60v52q54 0 101 -20t83 -56t56 -83t20 -101h-52z" />
<glyph unicode="picasa" d="M1062 1072v-350q0 4 -28 32t-71 67t-94 84t-95 84t-74 66t-34 29q90 34 182 34q56 0 115 -12t99 -34zM590 148v450q-58 -54 -106 -96q-40 -36 -74 -68t-36 -34q32 -78 85 -143t131 -109zM328 594q0 -34 5 -68t15 -68q4 2 39 34t86 79t109 100t108 99t85 77t37 33 q-4 2 -34 30t-66 61t-66 60t-32 29q-132 -68 -209 -192t-77 -274zM642 386v-270q80 -36 162 -44h96q136 14 249 86t173 228h-680zM1114 1042v-604h232q14 40 19 80t5 84q0 138 -69 253t-187 187z" />
<glyph unicode="pinterest" d="M814 318q-8 6 -14 19t-16 5q-18 -72 -42 -150t-58 -136h-64v2q-6 30 -3 78t7 76q6 36 18 77t26 83t23 84t9 78q0 32 -10 65t-4 67q4 32 27 60t52 42t57 7t44 -43q18 -42 5 -88t-29 -90t-22 -82t26 -68q14 -12 42 -19t56 -1q44 8 76 42t51 80t24 101t-3 106t-31 92t-59 63 q-80 46 -160 38t-143 -50t-99 -109t-28 -141q2 -28 16 -51t23 -44t8 -42t-27 -45q-74 28 -105 80t-29 136q0 88 39 158t104 117t150 68t177 11q60 -6 114 -31t96 -63t69 -87t33 -101q6 -48 0 -99t-22 -101t-42 -92t-62 -72q-24 -20 -62 -36t-80 -22t-84 -1t-74 29z" />
<glyph unicode="podcast" d="M850 912q-96 0 -180 -30t-147 -83t-101 -127t-42 -162v18q0 90 37 169t101 139t149 94t183 34t183 -34t149 -94t101 -139t37 -169v-18q-4 88 -42 162t-101 127t-147 83t-180 30zM850 754q-60 0 -113 -18t-93 -49t-64 -76t-28 -99v16q0 56 23 107t64 89t95 60t116 22 t116 -22t94 -60t64 -89t24 -107q0 -10 -2 -16q-4 54 -28 99t-64 76t-92 49t-112 18zM850 514q-40 0 -67 25t-27 61t27 61t67 25q38 0 65 -25t27 -61t-27 -61t-65 -25zM850 128q-58 0 -98 69t-40 167q0 50 11 77t30 40t44 15t53 2t53 -2t44 -15t30 -40t11 -77q0 -98 -40 -167 t-98 -69z" />
<glyph unicode="posterous" d="M500 68v790q0 70 -2 128t-4 112h108l8 -130h10l6 4q82 142 264 142q70 0 128 -28t100 -77t65 -118t23 -153q0 -104 -30 -180t-78 -125t-109 -73t-123 -24q-76 0 -135 31t-93 85l-2 4h-12l-2 -8v-380h-122zM848 1020q-78 0 -138 -49t-80 -127q-8 -32 -8 -56v-132 q0 -34 6 -58q20 -76 79 -122t135 -46q108 0 173 81t65 219q0 64 -17 117t-48 92t-74 60t-93 21z" />
<glyph unicode="qik" d="M1174 596q10 -16 19 -34t21 -35t27 -29t39 -18q-2 -18 -17 -30t-34 -18t-40 -4t-37 14q-14 8 -25 28t-21 36q-12 18 -22 35t-20 33q-6 -34 -11 -71t-13 -73q-22 0 -42 1t-35 7t-23 18t-6 34q0 10 7 55t16 100t18 109t13 84q0 4 2 4q48 4 79 -5t27 -55q-4 -40 -13 -88 t-13 -84q18 14 32 32q14 16 28 31t30 31q8 8 17 16t19 12q24 10 57 6t67 -2q-8 -10 -29 -29t-44 -40t-44 -41t-29 -30zM892 858q32 -6 38 -30q10 -26 -4 -43t-32 -25q-24 -10 -50 -3t-30 31q-10 32 9 47t47 23h22zM806 728q34 0 63 -2t39 -22q6 -14 4 -33t-4 -35 q-8 -52 -16 -105t-16 -99q-30 -2 -59 0t-41 18q-8 12 -7 32t5 38q8 52 16 105t16 99v4zM618 746q60 -4 94 -40t30 -104q-4 -34 -10 -66t-10 -66q-6 -34 -11 -66t-9 -68h-52h-2q-24 0 -35 13t-13 31t1 40t7 40q-10 -6 -18 -15t-20 -13q-10 -4 -18 -6l-16 -4q-76 -8 -118 33 t-38 103q2 40 16 69t36 53q28 32 74 51t112 15zM594 518q12 10 22 29t13 40t-1 40t-18 29q-8 4 -21 7t-23 1q-18 -2 -34 -12q-12 -10 -21 -28t-13 -39t0 -41t20 -30q18 -10 41 -8t35 12z" />
<glyph unicode="quora" d="M1268 622q-4 -112 -58 -204t-142 -150q22 -30 42 -45t36 -21q18 -8 32 -4v-74q-30 -14 -62 -18q-28 -4 -59 5t-59 43q-26 32 -44 62q-58 -18 -120 -18q-86 0 -161 33t-129 91t-85 135t-27 165q2 88 38 165t95 135t136 91t163 33t162 -33t130 -91t84 -135t28 -165z M1074 630q2 64 -13 121t-43 99t-67 67t-83 25q-46 0 -86 -25t-71 -67t-50 -99t-21 -121t13 -121t43 -99t66 -67t84 -25q32 0 52 10q-4 10 -9 18t-9 16q-12 16 -25 23t-25 9q-14 2 -26 -2v74q32 12 66 10q28 -2 62 -18t62 -60q34 44 55 103t25 129z" />
<glyph unicode="reddit" d="M1050 1010q0 24 10 44l-178 42q-14 0 -18 -4q-10 -6 -10 -16l-36 -236q0 -24 20 -28h4q18 0 22 20l30 212zM1148 882q-52 0 -88 38t-36 90t36 90t88 38t87 -38t35 -90t-35 -90t-87 -38zM1148 1086q-30 0 -51 -22t-21 -54t21 -54t51 -22t51 22t21 54t-21 54t-51 22z M1238 822q-36 0 -66 -17t-48 -45q10 -6 21 -13t21 -15q10 16 29 27t43 11q34 0 59 -23t25 -57q0 -30 -19 -52t-47 -28l8 -24t6 -26q44 10 73 46t29 84q0 56 -39 94t-95 38zM428 614q-22 10 -37 30t-15 46q0 34 25 57t59 23q40 0 66 -32l42 30q-18 24 -46 39t-62 15 q-56 0 -95 -38t-39 -94q0 -44 24 -77t64 -49q4 28 14 50zM842 196q-94 0 -177 26t-145 72t-98 106t-36 130q0 68 36 129t98 106t145 71t177 26t177 -26t144 -71t97 -106t36 -129q0 -70 -36 -130t-97 -106t-144 -72t-177 -26zM842 810q-84 0 -158 -22t-129 -60t-87 -89 t-32 -109t32 -109t87 -89t129 -60t158 -22t157 22t128 60t87 89t32 109t-32 109t-87 89t-128 60t-157 22zM1000 436q-18 -18 -56 -30q-22 -6 -46 -10t-52 -4t-51 4t-45 10q-42 14 -56 30q-18 18 -36 0q-8 -8 -8 -19t8 -19q14 -16 34 -26t44 -18t52 -11t58 -3q68 0 112 14 q50 16 78 44q8 8 8 19t-8 19q-18 18 -36 0zM742 608q0 -26 -17 -43t-41 -17t-42 17t-18 43t18 43t42 17t41 -17t17 -43zM1070 608q0 -26 -17 -43t-41 -17t-42 17t-18 43t18 43t42 17t41 -17t17 -43z" />
<glyph unicode="retweet" d="M692 914h472q22 0 37 -12t15 -34v-320h156l-262 -262l-260 262h156v208h-156zM536 286q-20 0 -36 16t-16 36v314h-158l262 262l262 -262h-158v-210h158l156 -156h-470z" />
<glyph unicode="rss" d="M484 338q44 0 74 -31t30 -73q0 -44 -30 -75t-74 -31t-74 31t-30 75q0 42 30 73t74 31zM380 1070q194 0 365 -74t299 -202t202 -300t74 -366h-196q0 154 -59 290t-160 237t-236 160t-289 59v196zM380 704q118 0 223 -45t183 -123t123 -183t45 -225h-192q0 80 -30 150 t-82 122t-122 82t-148 30v192z" />
<glyph unicode="scribd" d="M966 316q0 -54 28 -104q-6 -6 -12 -13t-12 -13q-80 -82 -200 -82q-114 0 -202 64q-90 68 -134 194l2 2q-4 16 -4 28q0 46 30 77t74 31t74 -31t30 -77t-32 -78q62 -74 158 -74q68 0 114 42q44 42 44 106q0 38 -24 78q-12 18 -26 34t-32 28q-32 24 -112 58q-78 34 -118 60 q-22 14 -39 30t-33 34t-26 37t-18 37q-6 18 -10 38t-4 42q0 100 80 172q78 72 190 72q72 0 152 -34q60 -26 108 -80q36 -32 36 -80q0 -46 -30 -78t-74 -32t-74 32t-30 78q0 26 8 44q-32 16 -84 16q-70 0 -110 -32q-42 -30 -42 -80q0 -42 38 -76q36 -32 124 -72 q90 -40 136 -72q26 -16 45 -35t35 -39q34 -42 48 -86q0 -4 2 -6q-34 -28 -54 -69t-20 -91zM1268 316q0 -52 -35 -88t-85 -36q-52 0 -87 36t-35 88t35 89t87 37q50 0 85 -37t35 -89z" />
<glyph unicode="sharethis" d="M1154 462q70 0 118 -49t48 -119q0 -68 -48 -117t-118 -49t-118 49t-48 117q0 8 2 10l-338 170q-46 -40 -106 -40q-70 0 -118 48t-48 118t48 118t118 48q30 0 57 -11t49 -29l338 168q-2 4 -2 10q0 70 48 118t118 48t118 -48t48 -118t-48 -118t-118 -48q-60 0 -106 40 l-338 -170q0 -2 1 -4t1 -4q0 -4 -1 -5t-1 -5l338 -168q46 40 106 40z" />
<glyph unicode="skype" d="M760 1082q128 12 215 -16t153 -86q38 -34 49 -67t4 -60t-27 -46t-44 -21q-24 -4 -50 19t-59 51t-74 52t-95 26q-54 0 -97 -25t-58 -58t4 -67t87 -50t136 -31t127 -38t106 -61t73 -100q26 -64 9 -126t-62 -112t-112 -83t-141 -37t-130 2t-100 21t-79 39t-67 54 q-36 34 -48 68t-6 63t26 48t50 21q28 2 52 -13t44 -34t36 -39t32 -30t50 -23t75 -18t83 5t72 46q34 40 27 70t-37 52t-74 35t-86 19q-58 8 -121 29t-113 56t-80 83t-24 112t31 113t62 82t84 52t97 23z" />
<glyph unicode="slashdot" d="M1058 1010l-366 -836h-208l366 836h208zM1084 434q56 0 94 -38t38 -92t-38 -92t-94 -38q-54 0 -92 38t-38 92t38 92t92 38z" />
<glyph unicode="slideshare" d="M1008 200q-42 0 -71 11t-47 26t-25 30t-7 25v310q0 16 33 24t63 8h166q8 0 37 9t63 22t65 29t45 32q20 22 32 22q4 0 8 -4q2 -4 2 -16t-16 -44q-22 -46 -63 -71t-87 -49q-14 -6 -27 -12t-27 -14l-2 -2v-174q0 -8 -6 -34t-22 -55t-44 -51t-70 -22zM1010 698q-46 0 -79 34 t-33 82q0 50 33 84t79 34t79 -34t33 -84q0 -48 -33 -82t-79 -34zM722 228q-20 0 -48 13t-53 33t-43 44t-18 44v190h-4q-44 16 -80 36q-32 16 -62 35t-42 35l-10 10q-22 28 -30 43t-2 31q0 2 2 2q10 0 29 -11t41 -25q28 -18 58 -35t54 -23q44 -10 107 -16t109 -6h16h6 q34 0 55 -13t39 -31q16 -14 45 -30t63 -16q36 0 60 24q38 34 56 34l4 -2q2 -4 2 -13t-10 -31q-16 -36 -66 -67t-108 -31q-36 0 -68 16l-6 4v-180q0 -20 -28 -42t-68 -22zM704 698q-46 0 -80 34t-34 82q0 50 34 84t80 34t79 -34t33 -84q0 -48 -33 -82t-79 -34z" />
<glyph unicode="smugmug" d="M756 1038q0 -28 -27 -49t-67 -21t-68 21t-28 49q0 30 28 51t68 21t67 -21t27 -51zM1086 1110q-40 0 -67 -21t-27 -51q0 -28 27 -49t67 -21t67 21t27 49q0 30 -27 51t-67 21zM1268 826h-806q-8 -2 -16 -8t-15 -16t-17 -28q-42 -88 -52 -193t27 -198t126 -155t245 -62 q104 0 187 38t147 97t111 130t76 136t43 115t14 68q0 26 -11 41t-25 23q-16 8 -34 12zM760 260q-32 0 -69 5t-73 18t-68 36t-54 59q-24 40 -34 87t-8 95t15 92t31 80h740q-6 -24 -22 -68t-43 -96t-66 -107t-90 -100t-116 -73t-143 -28z" />
<glyph unicode="soundcloud" d="M330 504q0 52 42 88v-174q-42 32 -42 86zM416 614q8 2 15 3t17 1h10v-228h-10q-10 0 -17 1t-15 3v220zM512 600q6 44 34 78v-288h-44v214q2 0 10 -4zM590 718q16 12 42 22v-350h-42v328zM676 748h16q20 0 28 -2v-356h-44v358zM788 722q8 14 20 26v-358h-66v352 q28 -6 46 -20zM828 770q30 26 68 41t80 15q86 0 148 -57t72 -139q12 4 23 7t27 3q52 0 87 -37t35 -89q0 -48 -30 -84t-96 -40h-414v380z" />
<glyph unicode="spotify" d="M854 472q86 0 164 -23t145 -64t120 -99t89 -128q-58 -54 -136 -54h-92q-48 68 -124 108t-166 40t-165 -40t-123 -108h-130q-60 0 -110 34q34 74 88 135t123 105t149 69t168 25zM490 536q-8 22 0 33t14 15q76 34 159 54t173 20q88 0 170 -17t156 -55q12 -4 20 -19t0 -31 q-14 -32 -48 -16q-68 30 -143 47t-155 17q-162 0 -304 -68q-8 -4 -21 -2t-21 22zM1312 930q0 -24 -17 -41t-41 -17q-4 0 -6 1t-6 1q-96 38 -197 58t-209 20t-209 -20t-197 -58q-4 0 -6 -1t-6 -1q-24 0 -40 17t-16 41q0 32 26 48q106 40 217 62t231 22q118 0 229 -22t215 -62 q32 -14 32 -48zM1234 758q14 -14 14 -28l-8 -24q-12 -16 -32 -16q-4 0 -5 1t-5 1q-84 36 -174 56t-188 20q-190 0 -360 -74q-4 -2 -12 -2q-20 0 -32 16l-8 22q0 14 14 28q92 40 191 62t207 22t207 -22t191 -62z" />
<glyph unicode="squidoo" d="M1316 462q10 -72 -12 -135t-63 -110t-93 -75t-102 -28q-96 0 -167 34t-109 128q-14 34 -14 72t-5 69t-25 52t-74 19q-68 -4 -143 -8t-131 12v110q0 -8 11 -13t23 -7q34 -4 81 1t91 13q52 8 104 20q-64 24 -116 62q-46 34 -90 86t-62 128q-6 22 -11 41t-11 35q20 32 50 56 q10 -30 17 -60t18 -57t29 -50t50 -37q42 -18 77 -29t63 -17q30 -8 56 -8q-2 42 -10 80q-8 34 -24 67t-50 51q-28 16 -62 38t-66 54q6 0 12 -2t14 -2h82q64 -26 107 -64t70 -76t40 -70t13 -48q36 28 60 60q22 26 33 58t-5 62t-40 54t-52 24h108q32 -14 52 -38t29 -53t5 -61 t-18 -58q-40 -72 -49 -117t41 -47q24 -2 65 -9t83 -29t76 -64t44 -114zM1210 348q14 38 13 76t-15 71t-40 57t-62 36t-72 8t-69 -22t-58 -48t-39 -68q-14 -40 -13 -78t15 -71t40 -57t62 -36t72 -7t69 23t58 47t39 69zM1102 486q26 -8 43 -31t17 -53q0 -36 -22 -61t-56 -25 t-57 25t-23 61q0 16 6 32q18 -2 36 -1t30 11q16 10 26 42z" />
<glyph unicode="stackoverflow" d="M1058 540v-470h-628v470h-104v-576h836v576h-104v0zM1280 790l-178 380l96 44l176 -380l-94 -44v0zM1156 694l-258 330l82 64l258 -330l-82 -64v0zM1056 572l-324 264l66 80l324 -262l-66 -82v0zM988 432l-376 182l46 94l376 -182l-46 -94v0zM952 278l-406 94l22 102 l408 -94l-24 -102v0zM952 122h-418v104h418v-104v0z" />
<glyph unicode="star" d="M404 722q-36 40 -22 70t68 30h234l110 232q22 50 55 50t55 -50l112 -232h232q56 0 69 -30t-23 -70l-2 -2l-176 -216l90 -262q18 -52 -5 -71t-71 5l-280 140l-280 -140q-50 -24 -72 -5t-4 71l90 262l-178 216l-2 2v0z" />
<glyph unicode="stumbleupon" d="M1168 262h-68q-36 0 -71 17t-64 46t-46 65t-17 72v242q0 18 -4 22q-2 0 -8 2q-12 4 -34 4h-286q-16 -12 -22 -32q4 -4 12 -11t26 -17l130 -52q52 -30 87 -87t35 -109q0 -32 -14 -61t-38 -52t-56 -36t-68 -13h-336v156h336q6 0 10 3t8 7q-4 10 -14 27t-26 29l-130 50 q-16 10 -37 24t-39 34t-31 45t-13 59q0 30 13 63t37 62t56 48t70 19h290q68 0 108 -21t61 -50t27 -61t6 -52v-242q2 -10 18 -26t26 -18h66q10 4 27 22t21 30v524h156v-526q0 -36 -18 -73t-48 -66t-66 -48t-72 -19z" />
<glyph unicode="technorati" d="M850 1002q98 0 183 -32t149 -86t101 -128t37 -158t-37 -157t-101 -127t-149 -86t-183 -32q-86 0 -160 24l-222 -160l34 268q-58 54 -90 123t-32 147q0 84 37 158t101 128t149 86t183 32zM850 374q60 0 113 18t92 48t62 71t23 87t-23 87t-62 71t-92 48t-113 18t-114 -18 t-93 -48t-62 -71t-23 -87t23 -87t62 -71t93 -48t114 -18z" />
<glyph unicode="tumblr" d="M902 1092v-210h208v-156h-208v-260q0 -42 -2 -66t2 -36q14 -28 36 -42q32 -18 76 -18q74 0 150 46v-148q-34 -14 -62 -24t-54 -16q-54 -12 -112 -12q-34 0 -58 4t-50 14q-28 8 -51 19t-39 27q-34 32 -40 71t-6 91v350h-156v114q30 10 60 22t52 30q46 36 68 80 q26 50 34 120h152z" />
<glyph unicode="twitterbird" d="M1346 924q-44 -64 -102 -104v-28q0 -100 -38 -203t-111 -186t-181 -136t-248 -53q-88 0 -166 24t-146 68q12 -2 24 -3t24 -1q72 0 137 24t117 64q-68 2 -119 41t-71 101q10 -4 19 -4h19q28 0 52 6q-70 16 -116 71t-46 129v2q22 -10 44 -17t48 -7q-40 28 -65 72t-25 96 q0 56 28 102q76 -92 184 -149t234 -63q-6 24 -6 46q0 42 16 79t44 65t65 44t79 16q44 0 82 -17t66 -47q36 6 68 19t62 31q-24 -74 -90 -114q64 10 118 32z" />
<glyph unicode="twitter" d="M1216 234q0 -40 -33 -73t-73 -33h-312q-60 0 -116 20t-100 59t-71 98t-27 137v524q0 40 32 72t72 32t72 -32t32 -72v-158h418q40 0 73 -32t33 -72t-33 -72t-73 -32h-418v-158q0 -40 33 -72t71 -32h314q40 0 73 -32t33 -72z" />
<glyph unicode="viddler" d="M1092 1028q48 0 89 -18t72 -50t49 -74t18 -92t-18 -93t-49 -74t-72 -49t-89 -18h-182l112 -366h-382v112l-260 -82v318l260 -74v92h-52q-40 0 -76 18t-64 48t-45 72t-17 90q0 50 21 93t56 76t80 52t93 19q42 0 80 -17t68 -46t50 -66t26 -77h8q6 40 26 77t50 66t68 46 t80 17zM636 722q28 0 46 20t18 48t-18 47t-46 19t-46 -19t-18 -47t18 -48t46 -20zM1098 722q28 0 46 20t18 48t-18 47t-46 19t-46 -19t-18 -47t18 -48t46 -20z" />
<glyph unicode="vimeo" d="M378 702q46 52 94 94q40 36 90 68t96 42q48 8 75 -22t42 -78t23 -106t20 -102q22 -86 40 -133t38 -47t55 44t75 118q20 36 21 69t-15 53t-46 23t-70 -21q10 62 48 107t86 71t101 32t93 -12t61 -62t9 -114q-20 -106 -78 -202t-126 -172t-133 -129t-99 -73q-34 -22 -64 -20 t-56 16t-46 37t-32 45q-8 16 -22 54t-29 86t-32 101t-32 98t-27 76t-18 39q-10 10 -28 8t-34 -10q-20 -8 -42 -26l-38 48v0z" />
<glyph unicode="virb" d="M352 922h202l162 -472l158 472h210l-262 -732h-208zM1346 816q0 -42 -31 -73t-75 -31t-74 31t-30 73q0 44 30 75t74 31t75 -31t31 -75z" />
<glyph unicode="www" d="M728 934l124 -446l126 446h90h214v-46l-110 -230q34 -12 63 -32t47 -50q16 -30 27 -65t11 -75q0 -50 -11 -92t-37 -76q-52 -66 -130 -66q-62 0 -104 40q-46 38 -66 108l70 30q10 -20 19 -36t23 -28q24 -24 60 -24t60 42q26 40 26 102q0 34 -7 66t-21 50q-16 22 -39 38 t-57 16h-60v18l146 228h-146h-8l-176 -612h-10l-128 452l-130 -452h-8l-206 694h90l124 -446l84 300l-40 146h90z" />
<glyph unicode="wikipedia" d="M734 798q-4 10 -8 18t-6 14t-4 10q-12 26 -19 40t-13 22t-13 11t-19 5q-12 0 -12 6v22l2 4h186l6 -2v-22q0 -8 -10 -8l-14 -2q-26 -4 -24 -17t18 -51l216 -488l8 -2l190 502q12 28 -2 42q-8 6 -15 10t-23 4l-18 2q-4 0 -6 2t-2 6v22l2 2h216l2 -2v-22q0 -8 -8 -8 q-44 -4 -64 -20q-10 -10 -18 -23t-12 -29l-96 -240q-20 -48 -40 -99t-39 -98t-35 -87t-28 -68q-32 -74 -64 0q-16 36 -42 101t-54 129q-32 74 -66 158zM1080 950h-176l-2 -2v-22q0 -4 2 -6t6 -2l10 -2q28 0 34 -10q4 -6 5 -15t-9 -31l-228 -502l-6 2q-46 110 -86 206 q-18 42 -36 85t-34 83t-30 74t-22 58q-8 18 -8 30q0 20 32 20l24 2q10 0 10 8v20l-2 2h-102h-134l-2 -2v-22q0 -6 14 -6q40 -4 50 -14q4 -6 11 -19t15 -35q22 -60 55 -138t67 -160t67 -161t57 -139q14 -34 30 -36t36 38q16 36 46 100t58 128q34 74 70 158l98 206 q10 16 17 30t11 20q10 14 17 17t29 5q8 0 8 8v22z" />
<glyph unicode="windows" d="M704 272q-34 22 -75 39t-97 17q-70 0 -152 -32l82 286l12 4l12 4q22 8 56 16t72 12q6 2 18 2q58 0 126 -34q10 -4 17 -10t17 -10q-6 -20 -17 -58t-24 -82t-26 -86t-21 -68zM952 168q-24 0 -50 7t-50 17t-43 19t-27 15l82 288q30 -22 77 -39t113 -17q76 0 154 26l-80 -276 q-94 -40 -176 -40zM814 662q-32 20 -72 37t-94 17q-70 0 -158 -32l82 284q44 18 83 26t75 10q40 0 70 -8q28 -6 57 -21t43 -23zM1074 552q-100 0 -182 56l84 290q30 -22 77 -39t111 -17q74 0 156 30l-82 -280h-2v-2q-82 -38 -162 -38z" />
<glyph unicode="wordpress" d="M380 602q0 100 40 192l224 -616q-118 58 -191 171t-73 253zM1168 626q0 -62 -36 -152l-48 -158l-170 506q10 0 20 1t18 1t16 2q20 4 18 22t-20 18q-24 -2 -46 -4q-20 -2 -41 -2h-39h-39t-41 2l-44 4q-20 0 -21 -19t17 -21q8 -2 16 -2t16 -1t18 -1l74 -200l-104 -310 l-170 510q10 0 20 1t18 1t16 2q18 4 17 22t-21 18l-44 -4q-20 -2 -42 -2h-40h-30q64 96 167 154t227 58q92 0 173 -33t145 -91h-6q-34 0 -57 -25t-23 -57q0 -30 14 -56t32 -56q14 -22 27 -53t13 -75zM1002 164q2 -2 2 -3t2 -3q-78 -28 -156 -28q-34 0 -68 5t-66 15l142 410z M1262 828q58 -104 58 -226q0 -132 -64 -239t-170 -169l144 416q20 52 28 93t8 75q0 14 -1 26t-3 24z" />
<glyph unicode="xing" d="M1188 98h-208l-210 366l314 576h210l-314 -576zM404 360l156 262l-104 208h210l104 -208l-156 -262h-210v0z" />
<glyph unicode="yahoobu&#x7a;&#x7a;" d="M850 710q64 0 121 -25t100 -67t68 -99t25 -123q0 -64 -25 -121t-68 -100t-100 -68t-121 -25q-66 0 -123 25t-99 68t-67 100t-25 121v628h156v-470v-158q0 -64 47 -110t111 -46t110 46t46 110q0 66 -46 112t-110 46h-104v156h104v0z" />
<glyph unicode="yahoo" d="M1170 762q-10 -4 -52 -37t-90 -75t-88 -83t-46 -59q-2 -6 -2 -36t1 -64t2 -65t3 -39q6 -2 27 -2h45h46t30 -2l-4 -50q-8 0 -35 1t-63 1h-75h-69q-16 0 -45 -1t-61 -2t-62 -1h-46l8 48q8 0 27 1t40 2t40 5t27 14q4 4 6 32t2 61t-1 63t-3 40q-2 6 -19 32t-42 62t-56 77 t-60 79t-53 67t-38 43h-138v52h472v-4v-12v-36h-146q24 -40 51 -81t53 -78t49 -70t37 -53l188 178h-110l-16 52h416l-38 -38q-2 0 -2 2l-12 -16h-74q-8 0 -14 -4t-10 -4zM1236 692q6 0 26 -3t43 -5t43 -4t24 -2l-72 -308l-64 6v316zM1266 322l36 -2l-10 -74l-34 4l-32 2v76z " />
<glyph unicode="yelp" d="M586 966q-6 8 -12 15t-7 15t7 20t32 30q18 14 44 24t52 15t50 6t38 -1q60 -12 60 -56l2 -340q2 -20 -7 -35t-23 -19q-14 -2 -30 9t-26 27zM942 582q-8 16 -5 36t17 36l100 120q14 16 34 16t42 -16q10 -10 23 -25t25 -32t21 -33t13 -24q6 -16 2 -40t-28 -28l-176 -34 q-20 -4 -39 3t-29 21zM958 392q-10 18 -12 35t6 23t26 6t38 -4l158 -46q20 -4 30 -24t2 -46q-4 -12 -16 -32l-24 -40q-14 -22 -32 -48q-10 -18 -39 -20t-39 16zM766 390q12 16 31 25t33 9q14 -2 23 -17t9 -35l-4 -210q-2 -22 -27 -37t-43 -7l-132 44q-18 8 -24 35t8 43z M736 578q20 -8 32 -24t10 -32q-4 -16 -18 -32t-32 -24l-182 -62q-18 -8 -37 5t-23 35q-2 10 -2 35v53q0 32 2 70q6 28 24 43t36 7z" />
<glyph unicode="youtube" d="M428 1092h86l56 -194h6l54 194h86l-100 -284v-200h-86v192zM722 884q0 42 32 66q30 24 82 24q50 0 78 -26q30 -28 30 -66v-186q0 -46 -28 -70q-32 -28 -82 -28t-82 28q-30 26 -30 72v186zM802 692q0 -16 8 -24q4 -4 9 -6t15 -2q14 0 24 10q8 6 8 22v194q0 12 -8 18 q-8 8 -24 8t-24 -8q-8 -6 -8 -18v-194zM1226 966v-358h-78v40q-18 -22 -44 -34q-22 -12 -44 -12q-24 0 -40 16q-14 20 -14 48v300h78v-274q0 -16 4 -18q6 -6 16 -6q6 0 22 6q16 12 22 20v272h78zM614 598h-234v-62h78v-376h76v376h80v62zM770 238q-8 -12 -22 -18 q-10 -6 -18 -6q-6 0 -14 4q-4 8 -4 18v248h-68v-272q0 -28 12 -42q12 -16 36 -16q20 0 38 12q22 10 40 30v-36h68v324h-68v-246zM1068 468q-20 20 -50 20q-16 0 -32 -8q-10 -4 -28 -22v140h-68v-438h68v24q6 -8 13 -13t15 -9q18 -6 36 -6q30 0 46 18q16 16 16 52v180 q0 40 -16 62zM1014 236q0 -16 -6 -22q-6 -8 -18 -8q-4 0 -16 4q-6 2 -16 12v202q6 6 14 10q4 2 14 2q14 0 22 -8q6 -10 6 -26v-166zM1320 314v82q0 44 -24 72q-28 24 -72 24q-48 0 -74 -26q-30 -28 -30 -70v-144q0 -44 26 -74q28 -28 72 -28q50 0 76 26q26 24 26 76v16h-70 v-16q0 -28 -6 -36q-8 -8 -24 -8t-24 10q-6 8 -6 34v62h130zM1190 398q0 20 8 28q6 10 22 10q14 0 24 -10q6 -10 6 -28v-34h-60v34z" />
<glyph unicode="instagram" d="M1214 668h-82q10 -36 10 -72q0 -60 -23 -114t-63 -94t-94 -63t-114 -23t-113 23t-93 63t-63 94t-23 114q0 36 10 72h-84v-402q0 -16 11 -26t27 -10h658q16 0 26 10t10 26v402zM1214 924q0 16 -10 27t-26 11h-110q-16 0 -26 -11t-10 -27v-108q0 -16 10 -27t26 -11h110 q16 0 26 11t10 27v108zM848 778q-76 0 -129 -53t-53 -129q0 -38 14 -72t39 -59t58 -39t71 -14t72 14t59 39t39 59t14 72t-14 71t-39 58t-59 39t-72 14zM482 120q-46 0 -77 32t-31 78v732q0 46 31 78t77 32h732q46 0 78 -32t32 -78v-732q0 -46 -32 -78t-78 -32h-732z" />
<glyph unicode="circlefivehundredpx" d="M1196 608q44 0 68 -24t24 -62q0 -36 -24 -60t-68 -24q-22 0 -43 13t-37 29q-20 18 -36 42q16 22 36 42q16 16 37 30t43 14zM846 608q22 0 43 -14t37 -30q20 -20 36 -42q-16 -24 -36 -42q-16 -16 -37 -29t-43 -13q-44 0 -68 24t-24 60q0 38 24 62t68 24zM848 1438 q174 0 327 -66t267 -180t180 -266t66 -326t-66 -327t-180 -267t-267 -180t-327 -66t-326 66t-266 180t-180 267t-66 327t66 326t180 266t266 180t326 66zM1210 338q88 0 125 54t37 128t-38 129t-124 55q-44 0 -78 -20t-58 -42q-28 -26 -50 -60q-20 34 -46 60q-22 22 -58 42 t-84 20t-78 -17t-46 -39q-20 -24 -26 -54q-12 26 -32 48q-16 18 -42 33t-66 15q-28 0 -47 -6t-33 -12q-16 -8 -26 -18l24 110h210v98h-280l-58 -294h104q8 14 20 24q10 10 25 18t37 8q44 0 63 -31t19 -67t-29 -67t-65 -31q-28 0 -42 11t-24 25q-10 16 -14 38h-106 q8 -44 30 -80q18 -30 53 -54t93 -24q56 0 92 15t58 33q24 22 36 48q6 -26 26 -48q16 -18 46 -33t78 -15t84 16t58 38q26 24 46 56q22 -32 50 -56q24 -22 58 -38t78 -16z" />
<glyph unicode="circleaboutme" d="M1182 762q54 0 90 -42q24 -30 26 -80h-236q2 54 36 88q38 34 84 34zM850 1440q174 0 327 -66t267 -180t180 -267t66 -327t-66 -327t-180 -267t-267 -180t-327 -66t-327 66t-267 180t-180 267t-66 327t66 327t180 267t267 180t327 66zM900 678q0 74 -34 106q-34 36 -98 36 q-78 0 -130 -74q-12 36 -42 54q-34 20 -78 20t-76 -20q-34 -18 -54 -48v58h-64v-418h72v216q0 58 12 88q12 32 38 46q26 16 56 16q40 0 58 -24q16 -26 16 -70v-272h72v242q0 64 30 94t76 30q24 0 42 -12q16 -12 26 -30q6 -18 6 -60v-264h72v286zM1374 602q0 102 -54 160 t-138 58q-86 0 -144 -58q-54 -60 -54 -164t54 -160t148 -56q74 0 122 36q46 34 64 98l-74 10q-14 -42 -44 -66q-26 -20 -68 -20q-56 0 -88 36q-38 40 -40 106h316v20z" />
<glyph unicode="circleaddme" d="M850 1440q174 0 326 -66t266 -179t180 -266t66 -327t-66 -326t-180 -266t-266 -180t-326 -66t-327 66t-266 180t-179 266t-66 326t66 327t179 266t266 179t327 66zM1268 708h-314v314h-210v-314h-314v-210h314v-314h210v314h314v210z" />
<glyph unicode="circleama&#x7a;on" d="M776 608q0 48 25 73t59 35q34 8 84 8v-24q0 -34 -2 -63t-20 -59q-18 -44 -62 -54q-4 0 -8 -1t-8 -1q-32 0 -50 24t-18 62zM848 1438q174 0 326 -66t266 -179t180 -265t66 -326t-66 -326t-180 -266t-266 -180t-326 -66t-326 66t-265 180t-179 266t-66 326t66 326t179 265 t265 179t326 66zM930 918q12 -18 13 -40t1 -44v-16q-20 -2 -41 -3t-43 -5q-34 -4 -66 -11t-60 -21q-54 -24 -87 -72t-33 -118q0 -90 48 -135t118 -45q44 0 80 10q28 10 53 27t53 47q16 -22 26 -37t38 -39q16 -6 28 2q16 16 42 38t42 38q8 6 7 14t-5 16q-16 22 -29 45t-13 63 v182q0 58 -4 109t-44 91q-34 32 -82 45t-88 13h-24q-36 -2 -73 -12t-69 -31t-55 -54t-31 -81q-4 -12 3 -17t13 -7l110 -14q14 2 18 22q8 34 32 51t52 21h8q40 0 62 -32zM1272 266q14 10 6 22t-24 6q-6 -4 -13 -6t-13 -6q-92 -36 -185 -54t-183 -18q-142 0 -274 38t-244 104 q-10 6 -15 -1t5 -15q102 -96 234 -150t282 -54q94 0 195 26t185 78q10 8 22 15t22 15zM1372 342q0 12 -4 20q-8 10 -51 14t-89 -10q-24 -8 -46 -24q-8 -4 -7 -10t9 -6q20 4 44 6q28 4 55 2t35 -12q6 -6 4 -23t-8 -38t-13 -41t-13 -32q-4 -10 2 -12t12 4q36 32 52 79t18 77v6 z" />
<glyph unicode="circleaol" d="M848 1434q174 0 326 -66t266 -179t180 -265t66 -326t-66 -326t-180 -266t-266 -180t-326 -66t-326 66t-265 180t-179 266t-66 326t66 326t179 265t265 179t326 66zM964 1068q-52 0 -89 -37t-37 -89t37 -88t89 -36q54 0 91 36t37 88t-37 89t-91 37zM1240 220l-8 16 q-104 202 -292 294q-2 2 -4 2l-2 2l-4 2q-4 4 -4 6q4 12 7 14t7 2h16q18 -4 35 -6t37 -2q40 0 85 13t101 41l16 10l-56 120l-18 -8q-20 -10 -51 -18t-67 -8q-44 0 -76 12l-8 4l-2 6q-2 2 -2 6t-2 8v6v26l-16 2q-26 6 -64 24l-10 6l-10 -4q-66 -38 -98 -101t-42 -171 q-4 -28 -6 -39t-4 -15q-22 -44 -51 -75t-59 -52t-59 -33t-51 -18l-22 -6l60 -160l18 6q66 16 113 39t81 50t58 56t46 57l14 20q4 4 8 4l8 -4q54 -24 94 -50t69 -52t46 -50t27 -40l10 -18z" />
<glyph unicode="circleappstorealt" d="M848 1074q98 0 184 -37t150 -101t101 -150t37 -184t-37 -183t-101 -149t-150 -101t-184 -37t-183 37t-149 101t-101 149t-37 183t37 184t101 150t149 101t183 37zM1110 550h-156v366h-210v-366h-156l260 -262zM848 1440q174 0 326 -66t266 -180t180 -266t66 -326 t-66 -326t-180 -265t-266 -179t-326 -66t-326 66t-265 179t-179 265t-66 326t66 326t179 266t265 180t326 66zM848 80q108 0 204 41t167 112t112 166t41 203t-41 204t-112 167t-167 112t-204 41t-203 -41t-166 -112t-112 -167t-41 -204t41 -203t112 -166t166 -112t203 -41z " />
<glyph unicode="circleappstore" d="M848 1436q174 0 326 -66t266 -179t180 -265t66 -326t-66 -326t-180 -266t-266 -180t-326 -66t-326 66t-265 180t-179 266t-66 326t66 326t179 265t265 179t326 66zM326 518q0 -24 24 -24h106l132 210h-238q-24 0 -24 -18v-168zM504 250q10 6 9 14t-9 12l-62 36 q-20 10 -24 -12l-10 -94q-2 -10 3 -13t13 3zM524 304q8 -6 18 -4t14 12l286 500q6 8 4 18t-12 14l-62 36q-22 10 -32 -10l-288 -498q-10 -20 10 -34zM1002 494l-88 210h-64l-132 -210h284zM1098 462q18 -10 28 -7t22 9q12 4 27 20t5 38q-6 10 -30 54t-54 101t-61 114t-53 93 q-22 34 -47 77t-47 80t-40 61t-26 20q-12 -6 -3 -41t27 -81t39 -92t33 -74t38 -88t54 -121t53 -110t35 -53zM1178 332q14 -22 36 -10l26 16q10 4 12 15t-2 21l-30 56q-4 10 -14 13t-20 -1l-36 -18q-10 -4 -12 -14t4 -20zM1316 176q4 52 -4 88q-8 30 -27 47t-59 -5 q-6 -6 -15 -22t11 -44q10 -14 25 -22t29 -14t25 -12t15 -16zM1372 686q0 10 -7 14t-17 4h-210l106 -210h104q10 0 17 7t7 17v168z" />
<glyph unicode="circleapple" d="M850 1440q174 0 326 -66t266 -179t180 -266t66 -327t-66 -326t-180 -266t-266 -180t-326 -66t-327 66t-266 180t-179 266t-66 326t66 327t179 266t266 179t327 66zM900 1002q-24 -26 -40 -66t-12 -80q40 -4 79 17t65 51t40 69t10 81q-36 -2 -76 -22t-66 -50zM1176 248 q34 50 50 91t16 43q-36 16 -64 42q-24 22 -44 59t-20 91q0 44 15 77t34 55t36 34t19 12q-22 30 -48 49t-51 28t-46 13t-33 4q-28 2 -55 -4t-51 -15t-44 -17t-34 -8q-28 0 -70 21t-90 21q-62 -2 -114 -33t-84 -85t-38 -119t5 -129t37 -124t56 -104q30 -42 68 -81t84 -37 q24 0 41 6t34 13t36 13t47 6t47 -6t36 -13t35 -13t42 -6q50 2 84 37t64 79z" />
<glyph unicode="circlebebo" d="M850 1442q174 0 327 -66t267 -180t180 -267t66 -327t-66 -327t-180 -267t-267 -180t-327 -66t-327 66t-267 180t-180 267t-66 327t66 327t180 267t267 180t327 66zM948 130q78 0 146 27t119 73t80 108t29 134q0 70 -22 132t-60 108t-89 73t-109 27h-186q-40 0 -67 -20 t-27 -58t27 -59t67 -21h186q34 0 64 -44t30 -112q0 -66 -55 -112t-133 -46h-92q-78 0 -121 47t-43 123v474q0 38 -33 64t-71 26q-40 0 -73 -26t-33 -64v-474q0 -76 29 -144t80 -121t119 -84t146 -31h92z" />
<glyph unicode="circlebehance" d="M1124 652q38 0 62 -24q12 -12 19 -26t9 -54h-180q4 40 11 53t17 25q24 26 62 26zM694 676q-12 -8 -27 -16t-35 -8h-96v158h82q22 0 38 -5t30 -9q30 -16 30 -62q0 -44 -22 -58zM692 544q18 -10 27 -23t9 -37q0 -60 -38 -80q-22 -12 -58 -12h-96v156h98q20 0 34 1t24 -5z M850 1438q174 0 326 -66t266 -179t180 -266t66 -327t-66 -326t-180 -266t-266 -180t-326 -66t-327 66t-266 180t-179 266t-66 326t66 327t179 266t266 179t327 66zM824 376q26 44 26 100q0 52 -22 92q-24 38 -68 56q28 14 44 36q28 34 28 92q0 56 -28 96q-42 66 -148 66 h-278v-628h260q22 0 42 2t38 6q36 8 66 32q26 24 40 50zM1006 810h210v104h-210v-104zM1320 496v11v25t-1 28t-1 22q-8 50 -32 88q-14 24 -31 40t-37 26q-44 22 -94 22q-86 0 -142 -62q-54 -60 -54 -176q0 -122 60 -178q58 -52 140 -52q96 0 148 68q18 20 27 38t13 48h-106 q-4 -30 -10 -31t-12 -5q-10 -10 -25 -18t-33 -8q-32 0 -56 18q-20 14 -30 35t-12 61h288z" />
<glyph unicode="circlebing" d="M850 1438q174 0 326 -66t266 -179t180 -266t66 -327t-66 -326t-180 -266t-266 -180t-326 -66t-326 66t-266 180t-180 266t-66 326t66 327t180 266t266 179t326 66zM850 130q98 0 183 26t149 71t101 105t37 130q0 68 -37 129t-101 107t-149 72t-183 26q-42 0 -80 -4 t-75 -16t-76 -32t-83 -50v378h-158v-618h2q2 -68 40 -127t101 -103t148 -69t181 -25zM850 684q62 0 117 -17t95 -47t64 -71t24 -87t-24 -86t-64 -70t-95 -48t-117 -18t-117 18t-95 48t-64 70t-24 86t24 87t64 71t95 47t117 17zM850 320q42 0 78 12t63 31t42 46t15 57t-15 57 t-42 46t-63 31t-78 12t-78 -12t-63 -31t-42 -46t-15 -57t15 -57t42 -46t63 -31t78 -12z" />
<glyph unicode="circleblip" d="M850 1440q174 0 326 -66t266 -179t180 -266t66 -327t-66 -326t-180 -266t-266 -180t-326 -66t-326 66t-266 180t-180 266t-66 326t66 327t180 266t266 179t326 66zM692 184l-262 262v-158l-52 -52l106 -104l52 52h156zM1020 184q0 120 -47 227t-127 187t-187 127t-229 47 v-170q84 0 162 -31t136 -89t90 -136t32 -162h170zM1320 184q0 182 -70 344t-191 284t-283 192t-346 70v-170q148 0 279 -57t229 -155t155 -229t57 -279h170z" />
<glyph unicode="circleblogger" d="M738 722q-22 0 -39 16t-17 40q0 22 17 39t39 17h166q24 0 40 -17t16 -39q0 -24 -16 -40t-40 -16h-166zM1074 494q24 0 40 -16t16 -40q0 -22 -16 -39t-40 -17h-336q-22 0 -39 17t-17 39q0 24 17 40t39 16h336zM848 1432q174 0 326 -66t265 -179t179 -265t66 -324 q0 -174 -66 -326t-179 -265t-265 -178t-326 -65q-172 0 -324 65t-265 178t-179 265t-66 326q0 172 66 324t179 265t265 179t324 66zM1376 674l-2 12l-8 18l-14 10q-6 6 -23 6t-38 1t-40 3t-27 10q-12 12 -16 32t-8 48q-4 26 -7 42t-6 26t-6 17t-7 17q-16 32 -43 60t-59 49 t-66 34t-62 17h-208q-62 0 -116 -23t-95 -63t-64 -94t-23 -116v-346q0 -60 23 -114t64 -95t95 -64t116 -23h340q62 0 116 23t94 64t64 95t24 114z" />
<glyph unicode="circlecoroflot" d="M850 1436q174 0 326 -66t265 -179t179 -265t66 -326q0 -172 -66 -324t-179 -266t-265 -180t-326 -66t-326 66t-265 180t-179 266t-66 324q0 174 66 326t179 265t265 179t326 66zM452 912q-6 -30 36 -34t102 0q28 2 54 -17t45 -57t30 -93t9 -121q26 8 60 12q0 16 -5 55 t-20 86t-42 94t-71 81q24 2 58 -4t74 -30t86 -70t96 -124q18 10 38 12q-18 30 -55 79t-87 94t-113 72t-131 9q2 24 0 47t-9 39t-19 22t-30 -4q-22 -12 -27 -22t-4 -22t4 -26t1 -32q-4 -18 -15 -23t-25 -5t-26 -2t-14 -16zM812 136q42 0 80 16t66 44t44 66t16 80t-16 80 t-44 66t-66 44t-80 16t-80 -16t-66 -44t-44 -66t-16 -80t16 -80t44 -66t66 -44t80 -16zM1066 280q38 2 71 17t58 41t39 60t14 72q0 80 -56 136t-136 56q-46 0 -85 -21t-67 -55q76 -28 123 -94t47 -150q0 -36 -8 -62zM750 466q20 0 33 -13t13 -33q0 -18 -13 -31t-33 -13 q-18 0 -31 13t-13 31q0 20 13 33t31 13z" />
<glyph unicode="circledaytum" d="M848 1434q174 0 326 -66t265 -179t179 -265t66 -324q0 -174 -66 -326t-179 -265t-265 -178t-326 -65q-172 0 -324 65t-265 178t-179 265t-66 326q0 172 66 324t179 265t265 179t324 66zM536 390h-104v-312h104v312zM692 600h-104v-522h104v522zM848 496h-104v-418h104 v418zM1006 808h-106v-730h106v730zM1162 600h-104v-522h104v522zM1318 912h-104v-834h104v834zM1318 1070h-886v-106h886v106z" />
<glyph unicode="circledelicious" d="M850 1440q174 0 327 -66t266 -180t179 -267t66 -327t-66 -327t-179 -267t-266 -180t-327 -66t-327 66t-267 180t-180 267t-66 327t66 327t180 267t267 180t327 66zM1270 1020h-420v-420h-420v-420h420v420h420v420z" />
<glyph unicode="circledesignbump" d="M850 1440q174 0 327 -66t267 -180t180 -267t66 -327t-66 -327t-180 -267t-267 -180t-327 -66t-327 66t-267 180t-180 267t-66 327t66 327t180 267t267 180t327 66zM692 864h106v-106l210 -210h-210v-210l210 210v316h104l-210 210zM744 600h106l-210 210l-210 -210h104 v-472h210v472zM902 234h-104v-106h104v106zM1270 286l-210 210l-210 -210h104v-158h210v158h106z" />
<glyph unicode="circledesignfloat" d="M850 770q70 0 118 -49t48 -119t-48 -118t-118 -48t-119 48t-49 118t49 119t119 49zM850 1026q88 0 165 -33t135 -91t91 -135t33 -165t-33 -165t-91 -135t-135 -91t-165 -33t-165 33t-135 91t-91 135t-33 165t33 165t91 135t135 91t165 33zM746 960q-118 -24 -174 -106 t-80 -200h104q20 80 65 131t85 73v102zM746 348q-20 10 -42 20t-43 26t-38 40t-27 64h-104q24 -118 80 -174t174 -80v104zM634 602q0 -44 18 -83t47 -68t68 -46t83 -17t83 17t68 46t46 68t17 83t-17 84t-46 69t-68 46t-83 17t-83 -17t-68 -46t-47 -69t-18 -84zM902 244 q58 12 109 31t91 49t67 72t39 102h-104q-10 -40 -28 -64t-44 -40t-59 -26t-71 -20v-104zM1208 654q-24 120 -106 201t-200 105v-102q78 -22 130 -73t72 -131h104zM850 1440q174 0 326 -66t266 -179t180 -266t66 -327t-66 -326t-180 -266t-266 -180t-326 -66t-326 66 t-266 180t-180 266t-66 326t66 327t180 266t266 179t326 66zM850 132q98 0 183 37t149 101t101 149t37 183t-37 184t-101 150t-149 101t-183 37t-184 -37t-150 -101t-101 -150t-37 -184t37 -183t101 -149t150 -101t184 -37z" />
<glyph unicode="circledeviantart" d="M564 462q-10 28 -6 56q4 24 22 54t64 60l64 -132zM850 1436q174 0 326 -66t266 -180t180 -266t66 -326t-66 -327t-180 -267t-266 -180t-326 -66t-327 66t-267 180t-180 267t-66 327t66 326t180 266t267 180t327 66zM1362 582q-50 66 -136 112q-74 40 -193 62t-295 -8h-8 l-46 92l-134 -16l54 -112q-54 -22 -89 -51t-56 -61t-30 -65t-11 -65q-4 -74 28 -152l434 124l-118 242q80 22 151 16t125 -24q64 -22 116 -56l-148 -40l-42 80q-30 4 -64 5t-70 -5l100 -202z" />
<glyph unicode="circlediggalt" d="M1266 494h-52v158h52v-158zM848 1436q174 0 326 -66t266 -179t180 -265t66 -326t-66 -326t-180 -266t-266 -180t-326 -66t-326 66t-265 180t-179 266t-66 326t66 326t179 265t265 179t326 66zM588 914h-106v-158h-156v-366h262v366v158zM744 756h-104v-366h104v366z M744 914h-104v-106h104v106zM1058 756h-262v-366h158v-52h-158v-104h262v104v52v366zM1372 756h-262v-366h156v-52h-156v-104h262v104v52v366zM430 652h52v-158h-52v158zM954 494h-54v158h54v-158z" />
<glyph unicode="circledigg" d="M588 358q22 0 37 -13t15 -31v-44h-174v44q0 18 15 31t37 13h70zM1110 758h-156v158h156v-158zM1214 714h52v-112h-104v-314h-104v156h-44v-156h-114v314h-104v104h52v-52h366v60zM848 1438q174 0 326 -66t266 -179t180 -265t66 -326t-66 -326t-180 -266t-266 -180 t-326 -66t-326 66t-265 180t-179 266t-66 326t66 326t179 265t265 179t326 66zM1372 802h-158v218h-366v-218h-52v6q-42 34 -82 62q-36 22 -77 42t-75 20q-36 0 -77 -20t-77 -42q-42 -28 -82 -62v-312h208v-52q-28 -2 -55 -12t-50 -28t-37 -41t-14 -49v-98q0 -14 10 -23 t24 -9h280q14 0 24 9t10 23v66v32q0 52 -42 89t-96 41v52h86h88h42v-312h462v312h106v306zM430 770q38 34 75 55t57 21q18 0 55 -21t75 -55v-168h-262v168z" />
<glyph unicode="circledribble" d="M848 1436q174 0 326 -66t266 -179t180 -265t66 -326t-66 -326t-180 -266t-266 -180t-326 -66t-326 66t-265 180t-179 266t-66 326t66 326t179 265t265 179t326 66zM848 128q98 0 184 37t150 101t101 150t37 184t-37 183t-101 149t-150 101t-184 37q-96 0 -182 -37 t-150 -101t-101 -149t-37 -183t37 -184t101 -150t150 -101t182 -37zM888 586q-102 -34 -185 -98t-143 -154q-94 104 -104 248q16 -2 29 -2h27q184 0 352 62l12 -28zM938 672q126 56 234 148q68 -98 68 -218q-76 18 -148 18q-66 0 -128 -14q-6 16 -12 33t-14 33zM620 280 q52 84 128 143t166 89q22 -68 36 -139t22 -145q-58 -20 -124 -20q-126 0 -228 72zM990 532q56 10 102 10q74 0 140 -20q-16 -82 -64 -150t-120 -110q-14 136 -58 270zM1122 880q-52 -42 -106 -77t-112 -61q-34 62 -73 121t-85 115q48 14 102 14q78 0 148 -29t126 -83z M830 712q-154 -54 -318 -54h-27t-23 2q14 92 68 168t138 120q94 -108 162 -236z" />
<glyph unicode="circledrupal" d="M850 1438q174 0 326 -66t266 -179t180 -266t66 -327t-66 -326t-180 -266t-266 -180t-326 -66t-327 66t-266 180t-179 266t-66 326t66 327t179 266t266 179t327 66zM854 130q84 0 159 28t132 81t90 126t33 163t-29 157t-65 111t-70 69t-46 31q-36 22 -71 36t-69 36 q-22 16 -50 45t-52 59q-4 -46 -18 -69t-30 -37q-36 -28 -62 -41t-56 -29q-12 -6 -48 -30t-74 -68t-68 -109t-30 -153t35 -162t94 -128t135 -85t160 -31zM760 560q40 0 75 -16t64 -35t54 -36t45 -17q18 0 41 14t48 31t49 31t40 14q34 0 46 -27t12 -49t-7 -54t-23 -56t-29 -34 t-33 -8q-12 0 -30 17t-38 36t-39 36t-35 17q-20 0 -51 -17t-66 -38t-73 -38t-72 -17q-40 0 -58 5t-32 15q-42 30 -40 88q0 54 44 96t108 42zM764 858q-28 -28 -55 -50t-79 -52t-75 -33t-27 -1q-2 2 -7 8t5 22q16 26 39 47t46 38t42 28t29 15q6 4 33 18t59 36q18 16 31 34 t19 64q4 -16 7 -30t1 -32q-2 -16 -13 -27l-15 -15l-28 -14q-6 -6 0 -6q12 -4 12 -12q0 -4 -4 -13t-20 -25zM922 284q-12 -10 -17 -13t-9 3q-8 10 6 24q8 6 19 15t23 15q12 4 20 4h20q10 0 21 -1t19 -7q10 -4 14 -14t8 -18q4 -12 -8 -18q-4 -4 -6 -2t-8 12q-4 10 -12 17 t-32 7t-35 -7t-23 -17zM1052 240q8 6 14 -4v-7t-4 -9q-4 -4 -32 -19t-66 -19q-36 -4 -81 -1t-75 31q-6 4 -5 10t5 8q8 8 14 8q4 0 6 -2q14 -12 37 -19t69 -7q44 0 74 10t44 20z" />
<glyph unicode="circleebay" d="M734 494q-2 -48 -68 -78h-2v78h70zM904 666q-36 -28 -36 -90q0 -38 15 -67t53 -39v46q0 36 -3 79t-29 71zM800 630q32 0 36 -31t4 -83q0 -64 -6 -92t-34 -28q-26 0 -33 28t-7 92q0 52 5 83t35 31zM850 1438q174 0 326 -66t266 -179t180 -266t66 -327t-66 -326t-180 -266 t-266 -180t-326 -66t-326 66t-266 180t-180 266t-66 326t66 327t180 266t266 179t326 66zM1478 862h-128l-98 -202l-92 202h-138l24 -44q-10 0 -21 1t-23 1q-62 0 -90 -22q-38 -22 -38 -82h96q0 20 5 36t33 16q26 0 32 -14t6 -36v-26q-40 0 -78 -3t-64 -23q-22 22 -64 22 q-50 0 -78 -38h-2v176h-96v-158q-10 4 -23 7t-29 7q-52 12 -134 12q-88 0 -138 -12t-77 -33t-34 -48t-7 -57q0 -36 8 -65t35 -50t77 -32t136 -11q40 0 73 4t61 8q32 6 52 18v-70h92v36h2q24 -44 82 -44q30 0 48 12t28 31t14 42t6 47q8 -2 24 -2q60 0 90 52h2l4 -46h90 q-2 16 -3 32t-1 32v90l40 -78v-166h126v166zM1046 818q64 -10 80 -41t16 -71v-78zM962 580q0 22 6 34t18 17t27 6t33 1q0 -14 1 -33t-3 -36t-14 -29t-32 -12q-24 0 -30 17t-6 35zM478 440q-28 0 -44 9t-24 22t-9 28t-1 29h264v-34h-52h-58q0 -20 -14 -37t-62 -17zM664 528 v140q52 -22 65 -58t9 -82h-74zM478 642q32 0 49 -7t24 -17t8 -22t1 -22h-160q0 8 1 20t8 23t23 18t46 7z" />
<glyph unicode="circleemail" d="M850 1442q174 0 327 -66t267 -180t180 -267t66 -327t-66 -327t-180 -267t-267 -180t-327 -66t-327 66t-267 180t-180 267t-66 327t66 327t180 267t267 180t327 66zM378 384l252 180l-252 180v-360zM1322 304l-308 220l-164 -118l-166 118l-306 -220v-122h944v122z M1322 744l-252 -180l252 -180v360zM1322 1022h-944v-122l472 -336l472 336v122z" />
<glyph unicode="circleemberapp" d="M1222 602q0 -20 -3 -41t-3 -43q0 -58 -19 -116t-59 -108q-48 -60 -116 -92t-166 -36q-114 6 -198 60t-124 160q0 12 -14 25t-20 29q4 4 5 6t5 6h-2q10 10 12 26t4 38q4 36 15 91t51 109q34 46 79 87t89 77q42 36 76 67t54 61q38 -30 86 -72t91 -90t74 -98t35 -96l12 -96z M1140 344q30 36 47 78t27 84l-28 -34l-12 98q-4 46 -35 96t-74 98t-91 90t-86 72q-20 -30 -54 -62t-76 -66q-44 -38 -89 -79t-79 -87q-40 -52 -51 -107t-15 -91q-2 -4 -2 -12q106 -198 326 -206q198 6 292 128zM848 1438q174 0 327 -66t267 -180t180 -266t66 -326t-66 -327 t-180 -267t-267 -180t-327 -66t-326 66t-266 180t-180 267t-66 327t66 326t180 266t266 180t326 66zM846 128q140 4 224 55t128 123t58 154t12 150t-10 109t-6 31q2 -16 -3 -32t-13 -30q-8 -16 -20 -32q-10 70 -64 145t-118 135q-74 70 -164 136q-2 -32 -37 -68t-83 -78 t-102 -88t-92 -100q-34 -44 -48 -90t-20 -83t-8 -62t-8 -27q-12 -4 -28 4q-8 4 -14 10q36 -122 91 -193t115 -108t116 -48t94 -13z" />
<glyph unicode="circleetsy" d="M848 1440q174 0 327 -66t268 -180t181 -267t66 -327t-66 -327t-181 -268t-268 -181t-327 -66t-327 66t-267 181t-180 268t-66 327t66 327t180 267t267 180t327 66zM1268 390h-28q-24 -40 -47 -81t-45 -65q-18 -18 -35 -31t-37 -19t-50 -10t-72 -4h-166q-42 0 -58 10 q-18 10 -24 26q-4 8 -9 30t-5 56v298h232q60 0 90 -18q28 -14 42 -44q10 -18 22 -96h34v368h-34q-4 -40 -14 -75t-28 -53q-16 -14 -43 -22t-69 -8h-232v368h284q80 0 102 -10q40 -16 56 -44q18 -30 32 -104h30l-12 210h-756v-52h36q30 0 56 -2t38 -18q10 -10 19 -35t9 -75 v-578q0 -40 -6 -62t-10 -34t-17 -18t-23 -14q-16 -8 -33 -6t-33 2h-36v-54h756z" />
<glyph unicode="circlefacebook" d="M848 1436q174 0 327 -66t267 -180t180 -266t66 -326t-66 -327t-180 -267t-267 -180t-327 -66t-326 66t-266 180t-180 267t-66 327t66 326t180 266t266 180t326 66zM1164 1070h-178q-52 0 -96 -18t-77 -48t-51 -68t-18 -76v-106h-158v-208h158v-420h210v420h156v208h-156 v54q0 24 19 38t33 14h158v210z" />
<glyph unicode="circlefeedburner" d="M850 1440q174 0 327 -66t267 -180t180 -267t66 -327t-66 -327t-180 -267t-267 -180t-327 -66t-327 66t-267 180t-180 267t-66 327t66 327t180 267t267 180t327 66zM768 1116q-48 -34 -94 -96t-82 -137t-58 -155t-22 -150q0 -100 24 -179t67 -135t101 -87t126 -31 q66 0 129 29t112 77t79 108t30 124q0 72 -18 125t-48 91t-68 66t-78 52q12 -64 0 -114t-40 -82t-69 -44t-89 2q46 78 58 132t5 95t-26 73t-35 66t-21 74t17 96zM850 86q98 0 184 16t150 44t101 65t37 79q0 38 -28 70t-78 60q-18 -56 -57 -107t-90 -88t-112 -59t-125 -22 q-120 0 -210 74t-130 206q-54 -28 -84 -61t-30 -73q0 -42 37 -79t101 -65t150 -44t184 -16zM830 212q-68 0 -125 34t-86 97t-22 150t71 191q-12 -60 -3 -112t32 -90t56 -59t67 -21q76 -2 123 63t69 161q62 -48 79 -118t-7 -135t-88 -112t-166 -49z" />
<glyph unicode="circleflickr" d="M848 1436q174 0 326 -66t266 -179t180 -265t66 -326t-66 -326t-180 -266t-266 -180t-326 -66t-326 66t-265 180t-179 266t-66 326t66 326t179 265t265 179t326 66zM588 390q42 0 80 16t67 45t45 67t16 82t-16 82t-45 66t-67 44t-80 16q-44 0 -82 -16t-67 -44t-45 -66 t-16 -82t16 -82t45 -67t67 -45t82 -16zM1110 390q44 0 82 16t66 45t45 67t17 82t-17 82t-45 66t-66 44t-82 16t-82 -16t-67 -44t-45 -66t-16 -82t16 -82t45 -67t67 -45t82 -16z" />
<glyph unicode="circlefoodspotting" d="M1200 266q16 0 32 -18q12 -18 12 -56q0 -36 -14 -52q-12 -16 -30 -16q-24 0 -36 22q-10 20 -10 52q0 36 14 50q12 18 32 18zM954 966q42 0 80 -17t67 -45t45 -66t16 -82t-16 -82t-45 -66t-67 -44t-80 -16q-44 0 -82 16t-67 44t-45 66t-16 82t16 82t45 66t67 45t82 17z M954 652q44 0 74 30t30 74t-30 75t-74 31t-75 -31t-31 -75t31 -74t75 -30zM848 1436q174 0 326 -66t266 -179t180 -265t66 -326t-66 -326t-180 -266t-266 -180t-326 -66t-326 66t-265 180t-179 266t-66 326t66 326t179 265t265 179t326 66zM378 496h104v522h-104v-522z M592 390h-192v-308h56v130h116v54h-116v72h136v52zM804 110q28 30 28 84t-28 84q-30 32 -76 32q-32 0 -54 -14q-24 -16 -36 -42q-14 -32 -14 -58q0 -32 14 -64q12 -26 38 -42q28 -14 54 -14q44 0 74 34zM1040 110q30 32 30 84q0 50 -30 84q-26 32 -74 32q-32 0 -54 -14 q-24 -16 -36 -42q-14 -26 -14 -58q0 -38 14 -64q12 -28 38 -42q28 -14 52 -14q46 0 74 34zM1296 390h-52v-110q-24 30 -58 30q-38 0 -62 -30q-24 -28 -24 -86q0 -56 24 -86q28 -32 60 -32q18 0 34 10q16 8 30 28v-32h48v308zM1320 914q0 42 -31 73t-75 31h-104l-52 104h-210 l-52 -104h-104q-44 0 -74 -31t-30 -73v-314q0 -44 30 -74t74 -30h522q44 0 75 30t31 74v314zM728 262q20 0 36 -18q14 -16 14 -50q0 -36 -14 -52q-16 -18 -36 -18t-34 18q-14 16 -14 52q0 34 14 50q14 18 34 18zM966 262q20 0 36 -18q14 -22 14 -50q0 -32 -14 -52 q-16 -18 -36 -18q-22 0 -34 18q-16 20 -16 52q0 30 16 50q12 18 34 18z" />
<glyph unicode="circleforrst" d="M848 1434q174 0 326 -66t266 -179t180 -265t66 -326t-66 -326t-180 -266t-266 -180t-326 -66t-326 66t-265 180t-179 266t-66 326t66 326t179 265t265 179t326 66zM1280 126l-432 942l-430 -942h388v214l-130 44v42l130 -42v170h86v-84l86 42v-42l-86 -44v-86l172 86v-42 l-172 -86v-172h388z" />
<glyph unicode="circlefoursquare" d="M846 430l412 448v-178l-412 -378l-184 196l-16 -6q-28 -12 -52 -12q-66 0 -113 50t-47 120t47 119t113 49q32 0 61 -13t50 -36t34 -54t13 -65q0 -32 -12 -62l-4 -12zM848 1436q174 0 326 -66t266 -179t180 -265t66 -326t-66 -326t-180 -266t-266 -180t-326 -66t-326 66 t-265 180t-179 266t-66 326t66 326t179 265t265 179t326 66zM1320 1030l-36 -38l-306 -328l-128 134l-54 -56q-22 68 -77 111t-125 43q-46 0 -85 -18t-68 -49t-46 -72t-17 -87t17 -87t45 -72t67 -50t83 -19l260 -274l300 316l-32 32l202 160v42v266v32v14z" />
<glyph unicode="circlefriendsfeed" d="M848 1438q174 0 326 -66t266 -179t180 -265t66 -326t-66 -326t-180 -266t-266 -180t-326 -66t-326 66t-265 180t-179 266t-66 326t66 326t179 265t265 179t326 66zM1234 966h-138q-54 0 -99 -30t-73 -76v106h-138q-42 0 -79 -18t-65 -50t-44 -73t-16 -89v-90h-152v-152 h152v-366h152v366h76h76h4v-366h152v366h152v152h-152v90q0 34 17 55t37 21h138v154zM904 812q-6 -18 -10 -36t-4 -40v-90h-4h-76h-76v90q0 34 17 55t35 21h118z" />
<glyph unicode="circlefriendstar" d="M848 1434q174 0 326 -66t266 -179t180 -265t66 -326t-66 -326t-180 -266t-266 -180t-326 -66t-326 66t-265 180t-179 266t-66 326t66 326t179 265t265 179t326 66zM968 728q-2 -34 5 -82t27 -68q10 -10 22 -10q72 0 72 114q0 26 -7 50t-17 44t-24 32t-28 12h-6 q-38 -6 -44 -92zM792 704q-10 -32 -5 -68t23 -60q6 -10 16 -19t26 -11h8q34 0 50 32t18 72q0 30 -12 57t-28 43t-32 16q-14 0 -32 -8t-32 -54zM1314 556q10 56 4 100t-24 64q-16 18 -38 18h-4q-46 -4 -60 -37t-26 -97q-6 -30 -18 -75t-39 -86t-72 -69t-113 -24 q-74 4 -110 26t-53 52t-22 64t-17 64q-4 10 -6 18t-6 16q-10 24 -28 51t-44 51t-58 40t-70 16h-132v-98h96q22 0 54 -29t44 -79q34 -154 117 -232t209 -78h10q100 2 174 39t123 88t76 106t33 91z" />
<glyph unicode="circlegdgt" d="M848 1436q174 0 326 -66t266 -179t180 -265t66 -326t-66 -326t-180 -266t-266 -180t-326 -66t-326 66t-265 180t-179 266t-66 326t66 326t179 265t265 179t326 66zM1266 1018l-156 -308v308l-52 52h-576l-52 -52v-522l52 -54h472v-156h-472v-104l52 -54h524l52 54v260 l156 262v314zM588 914h366v-314h-366v314z" />
<glyph unicode="circlegithub" d="M848 1436q174 0 326 -66t266 -179t180 -265t66 -326t-66 -326t-180 -266t-266 -180t-326 -66t-326 66t-265 180t-179 266t-66 326t66 326t179 265t265 179t326 66zM822 68q60 0 112 18t91 48t62 70t23 86q0 44 -23 84t-62 70t-91 48t-112 18q-6 0 -12 -1t-10 -1 q-10 24 -10 48q0 14 2 31t6 17h8q50 0 93 19t76 51t52 75t19 91q0 22 -9 49t-23 39l84 46v156l-172 -94q-58 40 -126 40q-50 0 -93 -19t-75 -51t-50 -75t-18 -91q0 -56 24 -103t64 -79q-22 -50 -22 -102q0 -24 5 -47t15 -45q-52 -30 -84 -76t-32 -98q0 -46 23 -86t62 -70 t91 -48t112 -18zM822 374q54 0 91 -25t37 -59q0 -36 -37 -61t-91 -25q-52 0 -90 25t-38 61q0 34 38 59t90 25zM806 730q-46 0 -79 32t-33 78t33 78t79 32t79 -32t33 -78t-33 -78t-79 -32z" />
<glyph unicode="circlegithubalt" d="M1098 626q82 0 130 -58q48 -60 48 -142q0 -62 -23 -106t-57 -72t-84 -42q-52 -16 -97 -20t-103 -4h-118q-56 0 -102 4t-98 20q-52 14 -84 42q-34 28 -56 72t-22 106q0 82 48 142q48 58 130 58q16 0 49 -4t85 -10q24 -4 52 -6t58 -2q28 0 56 2t52 6q54 6 87 10t49 4z M682 316q32 38 37 82t-7 84q-10 30 -31 54t-49 24t-52 -24q-30 -38 -35 -82t5 -84q10 -30 31 -54t51 -24q28 0 50 24zM1126 316q32 38 37 82t-9 84q-8 30 -29 54t-49 24t-52 -24q-30 -38 -35 -82t5 -84q10 -30 31 -54t51 -24q28 0 50 24zM850 1438q174 0 326 -66t266 -179 t180 -266t66 -327t-66 -326t-180 -266t-266 -180t-326 -66t-326 66t-266 180t-180 266t-66 326t66 327t180 266t266 179t326 66zM1388 318q42 86 42 230q0 168 -94 276q18 56 18 116q0 78 -34 152q-72 0 -132 -28q-28 -14 -60 -35t-70 -49q-90 24 -194 24q-56 0 -109 -7 t-105 -19q-76 60 -132 86q-60 28 -130 28q-36 -72 -36 -152q0 -62 18 -118q-94 -110 -94 -274q0 -144 44 -230q32 -70 99 -111t139 -59q52 -16 106 -22q28 -4 54 -6t48 -2q22 -2 46 -2h52h61t55 2t55 6t63 10q70 12 118 32q52 22 98 61t74 91z" />
<glyph unicode="circlegooglebu&#x7a;&#x7a;" d="M848 1434q174 0 326 -66t266 -179t180 -265t66 -326t-66 -326t-180 -266t-266 -180t-326 -66t-326 66t-265 180t-179 266t-66 326t66 326t179 265t265 179t326 66zM848 1016q-124 0 -231 -48t-171 -132l268 -256l402 370q-58 32 -127 49t-141 17zM416 788 q-38 -64 -38 -144q0 -72 33 -137t95 -117l168 154zM848 272q90 0 170 25t144 71l-294 280l-330 -304l-2 -4q-12 -28 -31 -56t-45 -46q10 -2 27 -4t39 -2q96 0 172 52l12 6l8 -2q34 -8 65 -12t65 -4zM1206 402q114 104 114 242q0 80 -41 152t-115 124l-256 -236z" />
<glyph unicode="circlegoogleplus" d="M826 820q0 -64 -28 -102t-90 -38q-42 0 -75 25t-55 62t-34 80t-12 79q0 58 32 106q34 44 92 44q42 0 76 -26t52 -66q20 -40 31 -83t11 -81zM882 342q6 -6 10 -22q10 -20 10 -48q0 -42 -18 -70t-47 -45t-64 -25t-71 -8q-84 0 -158 38q-36 20 -58 53t-22 77q0 60 35 94 t87 50q36 12 69 17t67 5q10 0 18 -1t14 -1l18 -14q10 -4 14 -8t8 -6l20 -14q8 -6 12 -10l8 -8q4 -2 18 -16q10 -10 16 -18t14 -20zM850 1438q174 0 326 -66t266 -179t180 -266t66 -327t-66 -326t-180 -266t-266 -180t-326 -66t-326 66t-266 180t-180 266t-66 326t66 327 t180 266t266 179t326 66zM902 148q90 78 90 178q0 66 -30 109t-66 74t-66 55t-30 54q0 36 31 63t61 61q22 22 37 58t15 84q0 50 -26 106q-24 52 -70 80h86l86 50h-278q-58 0 -118 -12q-88 -20 -148 -90t-60 -158q0 -96 66 -156q68 -62 162 -62h21t25 2q-2 -4 -5 -13l-5 -15 q-4 -6 -4 -26q0 -46 40 -94q-96 -2 -194 -32q-52 -16 -92 -46t-60 -70q-24 -46 -24 -86q0 -54 28 -92t72 -62t94 -34t96 -10q170 0 266 84zM1402 958h-162v162h-82v-162h-162v-80h162v-164h82v164h162v80z" />
<glyph unicode="circlegoogletalk" d="M848 1438q174 0 326 -66t266 -179t180 -265t66 -326t-66 -326t-180 -266t-266 -180t-326 -66t-326 66t-265 180t-179 266t-66 326t66 326t179 265t265 179t326 66zM792 976q76 -10 142 -38t114 -71t75 -98t27 -115q0 -76 -41 -140t-111 -110q102 38 163 109t61 159 q0 62 -33 118t-89 97t-133 65t-163 24h-12zM1086 362q128 46 207 135t79 199q0 78 -41 146t-112 119t-167 81t-204 30t-203 -32t-166 -85t-112 -124t-41 -149q0 -68 32 -128t83 -108t115 -82t126 -48q-14 -42 -47 -94t-89 -88q90 -10 172 8q70 14 145 59t123 139 q-28 -36 -72 -68q-38 -28 -96 -52t-140 -32q24 32 42 62t30 52q14 26 26 50q-60 14 -115 36t-103 53t-84 68t-56 81l-8 40t-4 42q0 74 33 138t91 111t140 73t178 26t178 -25t142 -70t93 -107t33 -138q0 -102 -51 -186t-157 -132z" />
<glyph unicode="circlegowallapin" d="M848 1434q174 0 326 -66t266 -179t180 -265t66 -326t-66 -326t-180 -266t-266 -180t-326 -66t-326 66t-265 180t-179 266t-66 326t66 326t179 265t265 179t326 66zM922 408q56 12 105 43t84 75t55 98t20 114q0 70 -27 131t-73 107t-107 73t-131 27t-131 -27t-107 -73 t-72 -107t-26 -131q0 -60 20 -114t55 -98t83 -75t104 -43l74 -288zM848 990q52 0 98 -20t81 -54t55 -80t20 -98t-20 -98t-55 -80t-81 -54t-98 -20t-98 20t-80 54t-54 80t-20 98t20 98t54 80t80 54t98 20zM848 598q58 0 99 41t41 99t-41 99t-99 41t-98 -41t-40 -99t40 -99 t98 -41z" />
<glyph unicode="circlegowalla" d="M554 278v-37t-4 -41q-2 -2 -6 -4t-14 -2q-32 0 -32 26q0 22 15 42t41 42v-26zM796 308q-14 -20 -44 -26h-14l2 4q10 22 27 31t27 9h4q4 -10 -2 -18zM850 1434q174 0 326 -66t265 -179t179 -265t66 -326t-66 -326t-179 -266t-265 -180t-326 -66t-326 66t-266 180t-180 266 t-66 326t66 326t180 265t266 179t326 66zM1358 158q10 22 14 52q-10 10 -19 17t-19 17q-10 8 -17 14t-15 14q0 12 -2 24l-4 24q-38 194 -169 302t-371 148v10q6 44 13 96t8 100t-6 90t-27 68q-22 30 -62 34h-8q-34 0 -68 -26t-56 -110q-20 16 -44 28t-52 12q-38 0 -76 -24 q-36 -20 -40 -66q0 -32 19 -68t48 -71t64 -67t65 -56q-24 -16 -56 -43t-64 -58t-56 -66t-30 -69q-10 -52 20 -90q30 -34 78 -34q16 0 40 6t55 25t67 55t76 94q8 -28 4 -60t-38 -58l-22 -14q-66 -48 -112 -89t-46 -99q0 -34 22 -55t58 -21q22 0 43 9t27 29q10 30 10 64 q14 -4 31 -6t35 -6q-8 -44 -8 -99t14 -107h50q-16 46 -16 103t8 101q16 -2 36 2q54 10 78 48q16 28 6 60q-10 34 -50 34q-24 0 -53 -17t-45 -51q-4 -6 -6 -11t-6 -13q-18 2 -35 5t-31 7q-16 4 -30 6l-30 6q16 14 36 28t42 30l22 16q32 24 46 55t14 62t-8 60t-18 47l-18 38 l-24 -36q-42 -70 -79 -109t-66 -59t-50 -25t-29 -5q-26 0 -40 18q-14 14 -10 46q6 30 32 63t60 65t68 57t54 39l32 22l-32 20q-34 24 -70 56t-65 66t-48 65t-19 53q0 18 14 26q40 24 71 13t67 -45q-4 -30 -5 -52t-1 -30q0 -38 20 -72t60 -34q12 0 28 6q22 10 29 22t9 22 q12 54 -66 132l-22 22q4 20 10 43t17 43t25 32t34 10q20 -4 28 -16q14 -20 19 -57t3 -82t-8 -92t-12 -83l-8 -60l24 -4q238 -34 363 -133t161 -281q-8 4 -14 6l-12 4q-32 10 -71 17t-79 7q-132 0 -178 -94q-26 -52 -33 -112t7 -110h50q-14 42 -9 97t29 103q30 66 134 66 q36 0 73 -7t65 -15q20 -6 44 -26q-2 -58 -27 -94t-55 -56t-55 -27t-27 -7l-52 -10l28 -24h82q46 18 92 61t58 119q2 0 2 -1t2 -1q14 -12 27 -25t29 -23zM584 928q32 -34 41 -55t7 -27q0 -4 -8 -8q-4 0 -6 -1t-4 -1q-14 0 -22 18t-8 38v36z" />
<glyph unicode="circlegrooveshark" d="M848 1434q174 0 326 -66t266 -179t180 -265t66 -326t-66 -326t-180 -266t-266 -180t-326 -66t-326 66t-265 180t-179 266t-66 326t66 326t179 265t265 179t326 66zM848 74q108 0 204 41t167 112t112 167t41 204t-41 203t-112 166t-167 112t-204 41t-203 -41t-166 -112 t-112 -166t-41 -203t41 -204t112 -167t166 -112t203 -41zM848 1068q98 0 184 -37t150 -101t101 -149t37 -183q0 -58 -14 -113t-40 -103q-36 24 -71 67t-66 87t-56 83t-39 55q-76 84 -151 140t-185 88q-2 -58 0 -115t-3 -110t-23 -100t-60 -83q-18 -16 -43 -28t-53 -20 t-56 -11t-52 -1q-30 78 -30 164q0 98 37 183t101 149t149 101t183 37z" />
<glyph unicode="circleheart" d="M848 1436q174 0 326 -66t266 -179t180 -265t66 -326t-66 -326t-180 -266t-266 -180t-326 -66t-326 66t-265 180t-179 266t-66 326t66 326t179 265t265 179t326 66zM862 182q32 0 82 30t107 81t111 117t93 137t56 143t-1 136q-32 102 -99 146t-141 46q-60 0 -101 -25 t-66 -55t-38 -55t-17 -25t-16 25t-36 55t-65 55t-101 25q-74 0 -143 -44t-101 -148q-18 -64 1 -136t61 -143t101 -137t118 -117t111 -81t84 -30z" />
<glyph unicode="circlehyves" d="M848 1436q174 0 326 -66t266 -179t180 -265t66 -326t-66 -326t-180 -266t-266 -180t-326 -66t-326 66t-265 180t-179 266t-66 326t66 326t179 265t265 179t326 66zM1234 246q8 12 7 25t-7 25t-15 20t-17 12t-23 2t-21 4q-4 4 -4 30v42v388q0 38 -1 83t13 63q4 4 14 8 t21 9t20 10t11 11q4 10 0 26t-11 31t-18 25t-19 10h-66q-40 -8 -78 -14t-72 -22q-10 -4 -20 -11t-12 -15q-10 -32 10 -53t42 -31q6 -4 22 -5t22 -7q8 -8 6 -32t-4 -40q-4 -40 -5 -74t5 -78q2 -14 5 -37t-9 -33q-4 -4 -15 -5t-24 -2l-26 -2t-21 -3q-64 -6 -108 -15t-100 -21 q-8 -2 -21 -5t-21 1q-6 2 -9 21t-3 27q-4 58 0 102t4 100v36t4 24t15 10t24 7t24 7t17 12q4 10 4 24t-4 24q-10 24 -28 35t-42 13t-53 -2t-59 -10q-44 -8 -80 -19t-52 -39v-18q10 -22 21 -34t29 -22q10 -4 25 -5t19 -7t4 -31v-43q0 -66 3 -118t3 -116q2 -54 4 -114t8 -112 q2 -18 4 -41t-4 -31q-4 -4 -11 -5t-13 -3q-16 -4 -33 -14t-19 -26q-4 -18 16 -40t40 -26q12 -4 21 -4t27 2q22 2 53 6t59 12t49 21t25 31q2 22 -14 40t-30 24q-6 2 -24 0t-24 8q-4 8 -3 23t1 25q-4 22 -7 59t7 51t34 20t38 10q46 16 81 21l91 13q6 0 20 2t30 3t29 0t17 -5 q2 -4 2 -19v-25q0 -16 -1 -27t1 -23q0 -22 4 -51t-6 -39q-8 -6 -23 -6t-25 -4q-28 -14 -30 -30q-4 -24 24 -50t52 -28q40 -4 86 8t74 26q12 4 26 9t18 11z" />
<glyph unicode="circleicondock" d="M848 1000q46 0 79 -32t33 -76q0 -46 -33 -77t-79 -31t-78 31t-32 77q0 44 32 76t78 32zM848 1436q174 0 326 -66t266 -179t180 -265t66 -326t-66 -326t-180 -266t-266 -180t-326 -66t-326 66t-265 180t-179 266t-66 326t66 326t179 265t265 179t326 66zM1318 602 q4 26 -12 42q-14 16 -40 16h-8l-154 -14q-32 -4 -38 -20q-2 -4 -1 -10t11 -14q26 -28 54 -36l14 -6l-8 -12q-6 -10 -28 -26l-122 -104q-6 -4 -13 -9t-15 -5q-22 0 -22 34v298l6 2q42 26 66 66t24 88q0 36 -14 69t-39 57t-59 38t-72 14t-71 -14t-58 -38t-40 -57t-15 -69 q0 -50 27 -92t73 -64l6 -4v-300q0 -34 -22 -34q-16 0 -28 12l-132 112q-20 18 -26 26l-10 12l16 6q26 8 54 36q14 14 8 24q-4 16 -36 20l-156 14h-6q-26 0 -40 -16q-18 -18 -14 -42l16 -150q6 -36 26 -36q4 0 9 1t11 9q14 12 24 27t14 25l4 14l14 -8q4 -4 11 -10t17 -16 l280 -308q18 -22 44 -22q28 0 46 22l280 308q14 18 28 26l12 8l6 -14q4 -10 14 -25t22 -27q8 -8 13 -9t9 -1q8 0 15 8t9 28z" />
<glyph unicode="circleicq" d="M712 530q-16 -12 -27 -24t-23 -22l-42 -34l-10 -6q-36 -18 -70 -14q-32 4 -44 20l-4 14l2 12q14 34 56 54q26 14 40 16l110 20l8 -26zM496 622q-34 6 -52 36q-14 26 -2 58q16 40 52 56q38 20 76 12l38 -16l118 -84q-18 -24 -22 -40l-194 -24zM766 478q10 -4 20 -9t22 -5 q2 -34 7 -70t5 -76v-52v-14q-16 -40 -50 -54q-36 -20 -74 -10q-40 12 -60 44q-4 10 -8 22t-4 24l8 30q2 20 20 38zM658 868q-8 18 -13 35t-1 35q2 36 26 50q12 10 32 0q36 -10 60 -56q6 -10 10 -20t6 -22l28 -158l-20 -6l-120 128zM968 664l136 112l16 6q40 16 72 10 q36 -2 48 -28l6 -18l-4 -14q-12 -34 -62 -56q-20 -8 -46 -12l-166 -20l-2 10l-4 4zM874 876v54v12q12 38 50 60q38 20 78 6q42 -10 60 -44q12 -18 12 -46l-4 -28q-8 -22 -20 -40l-122 -146q-20 14 -40 22zM928 594q0 -40 -26 -64q-30 -26 -62 -26q-38 0 -64 26 q-26 24 -26 64q0 36 26 62q28 24 64 24q38 0 62 -24q26 -26 26 -62zM1192 576q16 -4 29 -13t21 -25q20 -22 20 -58l-4 -26q-10 -40 -46 -58q-38 -20 -74 -6q-14 4 -22 9t-16 13l-142 116l10 18l4 16l154 14l54 2zM848 1436q174 0 326 -66t266 -179t180 -265t66 -326 t-66 -326t-180 -266t-266 -180t-326 -66t-326 66t-265 180t-179 266t-66 326t66 326t179 265t265 179t326 66zM1312 438q18 62 -12 116l-6 10q-8 12 -17 23t-21 19q-10 8 -22 13t-22 11q32 16 54 35t32 47q8 22 2 41t-6 37v2q-30 22 -39 34t-35 20q-16 4 -32 4t-32 -2 l-46 -10l16 34q18 66 -14 122l-4 6q-28 48 -92 64q-62 18 -118 -12q-28 -16 -53 -39t-25 -53v-2v-8l-6 8l-14 24q-32 50 -82 62q-40 10 -80 -8q-40 -26 -52 -82q-10 -60 22 -112l8 -14l-32 10q-58 14 -116 -16q-56 -26 -80 -86q-22 -58 6 -106q6 -10 14 -19t16 -15 q24 -24 62 -30l8 -2l-20 -18q-28 -24 -36 -54q-10 -38 10 -72q8 -14 24 -26q8 -6 18 -11t22 -5q46 -12 96 2l-26 -38l-6 -18q-20 -60 10 -118l16 -20l16 -20q24 -22 60 -30q64 -18 122 10q56 30 74 92v8q40 -44 78 -54q44 -12 78 10q36 20 48 64q8 42 0 92q20 -14 42 -20 q66 -20 120 8q54 30 72 92zM1010 368q10 -16 15 -33t1 -37q-4 -36 -26 -48q-12 -8 -32 -4q-38 8 -60 58l-16 44l-22 116l24 8l18 8l56 -56l36 -44z" />
<glyph unicode="circleidentica" d="M936 622q-24 -20 -36 -40q-28 -22 -60 -36t-70 -14q-48 0 -92 22l-142 -58l44 170q-14 38 -14 74q0 44 16 82t44 66t65 44t79 16t79 -16t64 -44t43 -66t16 -82q0 -34 -10 -63t-26 -55zM848 1436q174 0 326 -66t266 -179t180 -265t66 -326t-66 -326t-180 -266t-266 -180 t-326 -66t-326 66t-265 180t-179 266t-66 326t66 326t179 265t265 179t326 66zM1158 282q48 26 78 75t30 107q0 44 -16 82t-43 66t-63 44t-78 16q-4 0 -5 -1t-3 -1q8 32 8 76q0 64 -24 121t-64 99t-96 66t-118 24t-117 -24t-96 -66t-65 -99t-24 -121q0 -62 26 -124l-58 -230 l214 70q62 -26 120 -26q54 0 102 18q4 -70 48 -123t108 -67l92 -120zM1066 576q44 0 74 -31t30 -77q0 -32 -15 -56t-39 -38l-30 -80l-40 68q-36 8 -61 37t-25 69q0 30 18 58q6 6 11 12t11 14q30 24 66 24z" />
<glyph unicode="circleimessage" d="M848 1432q174 0 326 -66t266 -179t180 -265t66 -326t-66 -326t-180 -266t-266 -180t-326 -66t-326 66t-265 180t-179 266t-66 326t66 326t179 265t265 179t326 66zM848 198q98 0 184 32t150 87t101 130t37 159t-37 159t-101 130t-150 87t-184 32t-183 -32t-149 -87 t-101 -130t-37 -159q0 -102 52 -188t142 -144q-6 -36 -37 -61t-71 -29q32 -6 68 -6q92 0 158 44q74 -24 158 -24z" />
<glyph unicode="circleitunes" d="M848 1438q174 0 326 -66t266 -179t180 -265t66 -326t-66 -326t-180 -266t-266 -180t-326 -66t-326 66t-265 180t-179 266t-66 326t66 326t179 265t265 179t326 66zM848 78q108 0 204 41t167 112t112 167t41 204t-41 203t-112 166t-167 112t-204 41t-203 -41t-166 -112 t-112 -166t-41 -203t41 -204t112 -167t166 -112t203 -41zM848 1072q98 0 184 -37t150 -101t101 -149t37 -183t-37 -184t-101 -150t-150 -101t-184 -37t-183 37t-149 101t-101 150t-37 184t37 183t101 149t149 101t183 37zM690 842h2v-360q0 4 -17 5t-29 -1q-38 -4 -63 -35 t-21 -69q2 -40 30 -64t66 -20q36 4 61 31t23 63h2v330l262 60v-250q0 4 -17 5t-29 -1q-38 -4 -63 -34t-21 -70q4 -38 32 -62t66 -20q36 4 60 31t24 63v472z" />
<glyph unicode="circlelastfm" d="M848 1434q174 0 326 -66t266 -179t180 -265t66 -326t-66 -326t-180 -266t-266 -180t-326 -66t-326 66t-265 180t-179 266t-66 326t66 326t179 265t265 179t326 66zM1132 320q80 0 134 47t54 117q0 68 -35 102t-109 56q-54 18 -89 33t-35 59q0 30 21 50t55 20q46 0 80 -44 l60 30q-46 82 -136 82q-70 0 -111 -39t-41 -103t41 -97t125 -61q46 -16 72 -31t26 -55t-33 -67t-85 -25t-75 28t-41 70l-32 72t-29 66t-21 51t-10 25q-36 84 -103 128t-157 44q-58 0 -109 -22t-89 -60t-60 -89t-22 -109t22 -109t60 -89t89 -60t109 -22q66 0 122 28t96 74 l-36 84q-28 -50 -76 -80t-106 -30q-42 0 -79 16t-65 44t-44 65t-16 79t16 79t44 65t65 44t79 16q64 0 114 -34t72 -88l90 -204l10 -22q28 -64 71 -99t117 -35z" />
<glyph unicode="circlelinkedin" d="M848 1432q174 0 326 -66t266 -179t180 -265t66 -326t-66 -326t-180 -266t-266 -180t-326 -66t-326 66t-265 180t-179 266t-66 326t66 326t179 265t265 179t326 66zM588 804h-210v-680h210v680zM482 858q44 0 75 30t31 74t-31 74t-75 30t-74 -30t-30 -74t30 -74t74 -30z M1320 518q0 72 -40 141t-104 105q-58 32 -135 34t-141 -26v32h-208v-680h208v416l88 42q16 8 43 8t43 -10q12 -6 24 -26t12 -36v-394h210v394z" />
<glyph unicode="circlemeetup" d="M776 550q-10 0 -14 6q2 16 6 27t8 23q4 8 8 20l4 8l2 -8q4 -16 3 -38t-9 -38h-8zM1408 582q-10 -28 -31 -50t-49 -30q10 46 23 94t47 78l2 4l2 -4q14 -26 13 -51t-7 -41zM622 564q-2 2 -8 2h-6v4q6 32 24 56q4 -16 5 -32t-1 -28l-4 -2h-2h-8zM848 1436q174 0 326 -66 t266 -179t180 -265t66 -326t-66 -326t-180 -266t-266 -180t-326 -66t-326 66t-265 180t-179 266t-66 326t66 326t179 265t265 179t326 66zM542 466q-10 32 -18 67t-14 69l-20 88t-26 80h-8q-12 0 -20 2q-4 0 -9 1t-9 1h-2h-6q-24 -34 -36 -83t-22 -97q-8 12 -13 24t-11 24 q-10 20 -21 41t-23 37h-12q-28 0 -50 -8v-42q-2 -54 0 -102t14 -92q4 -2 10 -2q16 0 30 6t20 10q0 14 -1 25t-3 23q0 6 -1 12t3 14q20 -26 34 -52q4 -10 10 -18t10 -16h10q6 0 12 1t10 1q8 2 24 2l6 -2q8 18 9 41t1 47q0 22 2 44t12 38q10 -50 24 -97t34 -97q6 0 13 2t15 4 q6 4 16 4h6zM638 436q20 0 40 5t36 11q-6 12 -20 12q-10 0 -26 -4q-12 -6 -24 -6q-4 0 -6 2q-16 0 -22 14q-16 26 -4 70q10 -2 23 -4t29 -2h4h14q8 30 5 68t-9 62q-8 0 -16 4q-16 6 -30 6h-6q-30 -4 -48 -38t-22 -72q-4 -36 5 -73t43 -51q8 -2 16 -3t18 -1zM808 442 q38 0 58 20q-4 12 -20 16q-12 -22 -38 -22t-44 24q-16 22 -4 50l20 -4t20 -2q12 0 28 4q-2 22 -1 40t5 36q4 14 5 29t3 33q-28 22 -56 24q-78 -60 -72 -188q4 -28 34 -44t62 -16zM998 570q14 2 26 3t18 7q-10 6 -18 18l-15 15t-19 11q-4 0 -4 -10q-2 -4 -3 -9t-7 -5h-6v2 q2 20 1 43t-3 49q-2 36 -3 72t5 66q-8 10 -21 19t-35 9q-6 0 -6 2q-12 -38 -9 -82t7 -88q4 -26 6 -50t-2 -46q-12 0 -18 2h-14q-12 0 -18 -6q-4 -4 -4 -18q10 -6 23 -8t29 -2l14 -2q0 -16 1 -28t1 -26q2 -18 3 -37t1 -41h14q10 2 28 2q0 16 -1 30t-1 28q0 20 -1 38t1 38 q10 4 30 4zM1202 510q12 20 20 41t4 55q-10 8 -21 16t-23 8h-4h-4l-2 -14q0 -20 -1 -42t-6 -42t-15 -35t-28 -21q-4 22 -5 47t-3 49v40q-4 2 -7 4t-7 4q-10 6 -18 10t-24 6q-10 -134 26 -174q14 -16 40 -16q16 0 34 6l6 8q12 20 26 32zM1460 554q12 24 16 60t-16 80 q-20 14 -38 19t-34 5q-38 0 -68 -36q-16 -18 -25 -44t-15 -53t-9 -53t-5 -44q-2 -2 -6 -2q-14 -4 -16 -8q16 -18 20 -47t8 -57q4 -24 6 -46t10 -38q4 -2 20 -2h14q14 0 20 -2q-10 28 -15 66t-1 92q44 10 80 40t54 70z" />
<glyph unicode="circlemetacafe" d="M848 1436q174 0 326 -66t266 -179t180 -265t66 -326t-66 -326t-180 -266t-266 -180t-326 -66t-326 66t-265 180t-179 266t-66 326t66 326t179 265t265 179t326 66zM930 164q12 40 24 77t16 49q-10 8 -44 32t-68 52q-42 32 -90 68h250q4 0 17 36t27 80q16 52 34 118 q18 -66 34 -118q14 -44 27 -80t17 -36h132l-210 628l-170 -510h-548zM1182 300l138 104h-172l-52 160l-54 -160h-170l138 -104l-52 -172l138 108l138 -108z" />
<glyph unicode="circlemixx" d="M848 1438q174 0 326 -66t266 -179t180 -265t66 -326t-66 -326t-180 -266t-266 -180t-326 -66t-326 66t-265 180t-179 266t-66 326t66 326t179 265t265 179t326 66zM1054 640q-28 -58 -80 -109t-126 -79q-64 -26 -126 -30t-116 12q36 -22 77 -34t87 -12q58 0 110 20t90 54 t61 80t23 98zM594 1088q-12 -28 -4 -54l188 -454q10 -30 23 -46t17 -16l14 6q4 2 7 18t-5 50l-114 480q-6 22 -24 37t-40 15q-14 0 -22 -2q-28 -10 -40 -34zM860 292q-114 -16 -215 12t-175 92q58 -72 147 -114t195 -42q76 0 144 23t124 64t95 96t57 121q-50 -96 -147 -165 t-225 -87zM838 78q110 0 207 44t170 119t115 176t42 215q0 62 -16 126q2 -10 2 -22v-22q0 -118 -43 -221t-116 -179t-172 -121t-211 -45q-82 0 -156 24t-138 67t-114 103t-82 132q24 -86 73 -158t117 -125t150 -83t172 -30z" />
<glyph unicode="circlemobileme" d="M848 1436q174 0 326 -66t266 -179t180 -265t66 -326t-66 -326t-180 -266t-266 -180t-326 -66t-326 66t-265 180t-179 266t-66 326t66 326t179 265t265 179t326 66zM1198 286q36 0 68 19t55 49t37 65t14 65q0 62 -40 92t-84 44q8 24 8 58q0 48 -19 91t-53 75t-79 51 t-97 19q-84 0 -149 -47t-89 -119q-42 52 -106 52q-62 0 -104 -48t-42 -116v-10q-10 2 -26 2q-24 0 -53 -8t-54 -26t-42 -45t-17 -65q0 -36 14 -72t37 -64t55 -45t68 -17h698z" />
<glyph unicode="circlemrwong" d="M848 1436q174 0 326 -66t266 -179t180 -265t66 -326t-66 -326t-180 -266t-266 -180t-326 -66t-326 66t-265 180t-179 266t-66 326t66 326t179 265t265 179t326 66zM402 472q-16 -22 -22 -38q-4 -14 3 -23t41 -1t73 22t76 32t68 39t49 43q18 20 13 28t-20 6t-36 -8 t-35 -12q-16 -6 -50 -20t-70 -30q-42 -18 -90 -38zM1132 208q4 60 -2 97t-18 59t-29 33t-31 21q-18 10 -59 14t-87 6q0 40 -1 74t-3 54q10 2 20 3t18 5q44 12 63 49t21 77q2 10 2 31v49q34 2 60 2h36q12 0 28 1t31 4t25 8t10 15q-2 20 -20 24t-46 8q-10 0 -44 1t-80 1 q0 30 -2 61t-3 58t-4 47t-7 28q-16 28 -34 14t-18 -34q0 -10 1 -63t1 -111h-178h-14q2 40 4 76t4 58q4 52 -9 70t-29 22t-23 -14t-11 -40q-4 -10 -4 -60t2 -110q-46 0 -95 1t-77 -3q-12 0 -20 -10t-11 -22t-1 -23t10 -13t29 -2h49t59 2t61 2q4 -36 7 -69t9 -57 q10 -44 46 -63t76 -23v-128h-66q-64 -2 -104 -33t-50 -63q-6 -16 -9 -40t-5 -48q-2 -28 -2 -58q0 -34 9 -50t21 -16t21 16t7 48q-6 84 21 126t51 46q12 2 41 2h65q2 -66 2 -122t-2 -72q0 -18 9 -26t21 -6t22 15t10 39v170q30 0 55 -1t39 -1q34 -2 52 -38t20 -122 q0 -38 9 -56t19 -17t19 21t13 56zM1244 452q12 -2 26 -6t25 -5t18 3t7 18q-2 14 -19 27t-42 25t-56 24t-59 24q-56 24 -80 24t-32 -22q-4 -14 1 -23t15 -15t22 -9l20 -5t29 -11t45 -20t46 -19t34 -10zM958 690q0 -20 -18 -33t-42 -18t-51 -3t-45 14q-18 10 -25 46t-9 82 q32 0 85 1t107 1q0 -30 -1 -54t-1 -36z" />
<glyph unicode="circlemsn" d="M848 1436q174 0 326 -66t266 -179t180 -265t66 -326t-66 -326t-180 -266t-266 -180t-326 -66t-326 66t-265 180t-179 266t-66 326t66 326t179 265t265 179t326 66zM502 546q32 -44 64 -77t62 -55q-6 42 0 86t34 84q30 46 60 64t54 22v6q-36 40 -76 69t-84 57 q-34 22 -75 43t-80 38t-74 28t-59 11q-20 0 -20 -4q-2 -4 -3 -22t16 -60t58 -112t123 -178zM684 570q-28 -42 -32 -88t6 -90q38 -26 69 -36t53 -10q18 0 24 4q20 6 36 24t26 38q-10 18 -18 36t-18 40q-36 86 -48 156q-22 -4 -47 -19t-51 -55zM918 104q6 4 12 22t10 44t7 54 t1 50q-2 4 -2 16q-30 26 -66 96q-12 -20 -28 -36t-38 -26q-10 -4 -34 -4q-50 0 -112 34q18 -52 44 -84q14 -18 37 -46t50 -55t56 -47t55 -20q4 0 8 2zM842 494q40 -96 73 -145t51 -59v16q-2 32 -12 92t-42 134q-28 64 -49 106t-37 68q-14 22 -23 31t-13 11q0 -2 -1 -3t-1 -5 q-2 -4 -2 -12v-2q-2 -8 -1 -19t3 -25q4 -34 17 -82t37 -106zM862 668q16 -28 31 -60t31 -72q10 -22 16 -41t12 -39q8 -6 49 -25t119 -19h28t30 2q52 8 89 45t63 93l-4 12t-4 10q-12 28 -42 52t-70 42t-87 29t-95 11q-92 0 -166 -40zM1244 208q20 24 40 58t35 75t21 85t0 86 q-28 -50 -67 -83t-91 -41q-16 -2 -32 -3t-30 -1q-58 0 -97 12t-61 24q16 -74 16 -110q32 -48 66 -72q48 -34 80 -53t54 -19q10 0 25 7t41 35zM1392 830q4 74 -12 137t-48 97q-30 32 -74 32q-10 0 -30 -4q-46 -10 -105 -49t-116 -93t-102 -119t-63 -127q2 -4 4 -6t4 -6 q80 42 178 42q52 0 102 -11t93 -31t75 -47t46 -59q22 56 33 119t15 125z" />
<glyph unicode="circlemyspace" d="M848 1436q174 0 326 -66t266 -179t180 -265t66 -326t-66 -326t-180 -266t-266 -180t-326 -66t-326 66t-265 180t-179 266t-66 326t66 326t179 265t265 179t326 66zM1012 1070q-58 0 -100 -41t-42 -99t42 -100t100 -42t99 42t41 100t-41 99t-99 41zM738 1038 q-46 0 -77 -32t-31 -76q0 -46 31 -78t77 -32t77 32t31 78q0 44 -31 76t-77 32zM530 1012q-34 0 -58 -24t-24 -58t24 -59t58 -25t58 25t24 59t-24 58t-58 24zM1214 542q0 40 -16 75t-43 61t-63 41t-76 15t-75 -15t-61 -41q-14 46 -52 76t-88 30q-34 0 -63 -14t-49 -36 q-8 32 -35 53t-63 21q-40 0 -70 -29t-30 -71v-160h158v-158h208v-208h418v360z" />
<glyph unicode="circlenewsvine" d="M848 1438q174 0 326 -66t266 -179t180 -265t66 -326t-66 -326t-180 -266t-266 -180t-326 -66t-326 66t-265 180t-179 266t-66 326t66 326t179 265t265 179t326 66zM900 528v206l124 90q20 -10 38 -10q30 0 51 22t21 52t-22 52t-52 22t-52 -22t-22 -52q0 -2 4 -10l-90 -66 v312h-104v-164l-90 66q4 8 4 14q0 30 -22 52t-52 22q-32 0 -53 -22t-21 -52q0 -32 22 -53t52 -21q18 0 34 8l126 -92v-206l-90 66q4 8 4 12q0 30 -22 52t-52 22q-32 0 -53 -22t-21 -52t22 -52t52 -22q18 0 34 10l126 -94v-218l-88 66q0 4 1 6t1 6q0 30 -22 52t-52 22 q-32 0 -53 -22t-21 -52q0 -32 22 -53t52 -21q18 0 34 10l126 -94v-220h104v74l124 90q14 -12 38 -12q30 0 51 22t21 52q0 32 -22 53t-52 21t-52 -21t-22 -53q0 -4 4 -8l-90 -66v220l124 90q14 -12 38 -12q30 0 51 22t21 52q0 32 -22 53t-52 21t-52 -21t-22 -53q0 -4 4 -8z " />
<glyph unicode="circlepaypal" d="M984 822q-18 -40 -56 -69t-80 -29h-4l20 98h120zM802 724h-74l56 248h122q44 0 69 -32t19 -76q-20 8 -36 8h-124zM848 1436q174 0 326 -66t266 -179t180 -265t66 -326t-66 -326t-180 -266t-266 -180t-326 -66t-326 66t-265 180t-179 266t-66 326t66 326t179 265t265 179 t326 66zM378 278h252l62 248h182q64 0 122 21t105 59t80 92t49 120q16 74 0 131t-51 95t-83 57t-96 19h-432zM1312 704q16 70 2 120t-44 86q16 -32 19 -70t-7 -88q-16 -66 -49 -123t-80 -99t-105 -65t-124 -23h-180l-62 -264h-212l-10 -50h252l62 266h180q66 0 124 23 t105 65t80 99t49 123z" />
<glyph unicode="circlephotobucket" d="M1266 864h54v-524h-54h-104h-14h-24h-14h-6q52 50 81 118t29 144t-29 143t-81 119h20h142zM594 864q-52 -52 -82 -119t-30 -143t30 -144t82 -118h-164h-52v524h52h104h54h6zM1022 864q64 -44 102 -112t38 -150q0 -84 -38 -152t-102 -110q-10 -6 -18 -11t-18 -9 q-2 -2 -3 -2t-3 -2q-18 -8 -40 -14q-22 -8 -40 -10h-10q-10 -2 -21 -3t-21 -1t-21 1t-21 3h-10q-16 2 -38 10h-2q-10 4 -19 7t-19 7l-8 4q-10 4 -18 9t-16 11q-64 42 -103 110t-39 152q0 82 39 150t103 112q8 4 16 9t18 11q4 0 5 1t3 1q20 10 38 16h2q14 4 38 8q4 2 10 2 q10 2 21 3t21 1t21 -1t21 -3q8 0 10 -2q10 -2 20 -3t20 -5l20 -8l20 -8q2 0 3 -1t3 -1q10 -6 18 -11t18 -9zM1110 602q0 54 -21 102t-56 83t-83 56t-102 21v-54q44 0 82 -16t66 -44t45 -66t17 -82h52zM848 1438q174 0 326 -66t266 -179t180 -265t66 -326t-66 -326t-180 -266 t-266 -180t-326 -66t-326 66t-265 180t-179 266t-66 326t66 326t179 265t265 179t326 66zM1372 864q0 22 -15 37t-37 15h-284q-40 24 -88 38t-100 14t-99 -14t-87 -38h-22h-52q0 22 -16 37t-38 15h-104q-22 0 -37 -15t-15 -37q-22 0 -37 -15t-15 -37v-524q0 -22 15 -37 t37 -15h284q82 -52 186 -52q106 0 188 52h74h52h158q22 0 37 15t15 37v524z" />
<glyph unicode="circlepicasa" d="M850 1438q174 0 326 -66t265 -179t179 -265t66 -326t-66 -326t-179 -266t-265 -180t-326 -66t-326 66t-266 180t-180 266t-66 326t66 326t180 265t266 179t326 66zM844 1124q-90 0 -180 -34q4 -4 34 -30t74 -65t94 -84t93 -84t71 -67t28 -32v350q-40 22 -98 34t-116 12z M326 600q0 -70 20 -136q4 4 39 36t85 78t109 99t109 99t84 77t36 33q-4 2 -34 30t-66 61t-66 60t-32 29q-132 -68 -208 -192t-76 -274zM588 604q-58 -54 -106 -96q-40 -36 -74 -68t-36 -34q32 -78 85 -143t131 -111v452zM896 78q138 14 250 86t172 228h-678v-270 q76 -34 160 -44h96zM1342 444q16 40 21 80t5 84q0 138 -69 253t-189 187v-604h232z" />
<glyph unicode="circlepinterest" d="M850 1438q174 0 326 -66t265 -179t179 -265t66 -326t-66 -326t-179 -266t-265 -180t-326 -66t-326 66t-266 180t-180 266t-66 326t66 326t180 265t266 179t326 66zM1114 422q36 30 61 72t41 92t22 101t0 99q-6 52 -32 101t-68 87t-96 64t-114 32q-92 10 -177 -12 t-150 -69t-105 -117t-40 -158q0 -84 30 -136t106 -80q26 24 27 45t-9 42t-24 44t-16 51q-8 74 29 141t99 109t142 50t160 -38q38 -22 60 -63t31 -92t4 -106t-24 -101t-51 -80t-76 -42q-28 -6 -57 1t-41 19q-32 30 -26 68t22 82t29 90t-5 88q-16 36 -45 43t-57 -7t-51 -42 t-29 -60q-4 -34 6 -67t10 -65q0 -36 -10 -77t-23 -84t-26 -84t-19 -77q-4 -28 -7 -76t5 -78l-2 -2h66q34 58 58 136t42 150q10 10 15 -4t15 -20q30 -24 72 -29t84 1t81 22t63 36z" />
<glyph unicode="circlepodcast" d="M850 1436q174 0 326 -66t265 -179t179 -265t66 -326t-66 -326t-179 -266t-265 -180t-326 -66t-326 66t-266 180t-180 266t-66 326t66 326t180 265t266 179t326 66zM848 128q64 0 109 56t45 168q0 56 -13 86t-34 44t-49 16t-58 2t-58 -2t-49 -16t-34 -44t-13 -86 q0 -112 45 -168t109 -56zM744 616q0 -40 30 -69t74 -29t74 29t30 69t-30 68t-74 28t-74 -28t-30 -68zM1178 562q0 4 1 9t1 9q0 64 -26 124t-71 107t-105 75t-128 28q-70 0 -130 -28t-106 -75t-72 -107t-26 -124q0 -4 1 -9t1 -9q4 60 31 106t72 77t104 47t125 16t124 -16 t102 -47t71 -77t31 -106zM1370 580q0 102 -41 191t-112 155t-166 105t-203 39t-203 -39t-166 -105t-112 -155t-41 -191v-20q4 98 46 174t113 127t164 78t199 27t199 -27t163 -78t113 -127t47 -174v20z" />
<glyph unicode="circleposterous" d="M850 1438q174 0 326 -66t265 -179t179 -265t66 -326t-66 -326t-179 -266t-265 -180t-326 -66t-326 66t-266 180t-180 266t-66 326t66 326t180 265t266 179t326 66zM914 346q62 0 123 24t109 73t78 125t30 180q0 84 -23 153t-65 118t-100 77t-128 28q-180 0 -264 -142 l-6 -4h-10l-8 130h-108q2 -54 4 -112t2 -128v-790h122v380l2 8h12l2 -4q34 -54 94 -85t134 -31zM894 1030q104 0 169 -81t65 -209q0 -138 -65 -219t-173 -81q-76 0 -135 46t-79 122q-6 24 -6 58v132q0 24 8 56q20 78 80 127t136 49z" />
<glyph unicode="circleqik" d="M566 666q10 2 23 0t21 -8q14 -10 18 -29t1 -40t-13 -40t-22 -29t-35 -12t-41 10q-16 10 -20 29t0 40t13 39t21 28t34 12zM850 1436q174 0 326 -66t265 -179t179 -265t66 -326t-66 -326t-179 -266t-265 -180t-326 -66t-326 66t-266 180t-180 266t-66 326t66 326t180 265 t266 179t326 66zM720 472q6 34 12 66t10 66q4 68 -30 104t-94 40q-66 4 -112 -15t-74 -51q-22 -24 -36 -53t-18 -69q-4 -62 38 -103t118 -33q10 2 18 4t16 6q12 4 21 13t19 15q-4 -18 -7 -40t-1 -40t13 -31t35 -13h2h50q6 36 11 69t9 65zM906 638q4 18 6 36t-6 32 q-10 20 -38 22t-62 2q-2 0 -2 -4q-6 -46 -14 -99t-16 -105q-4 -18 -5 -38t7 -32q10 -16 40 -18t60 0q8 46 15 99t15 105zM892 762q20 8 34 25t4 45q-6 20 -38 30h-22q-28 -10 -47 -25t-11 -47q6 -24 32 -31t48 3zM1174 598q8 10 29 30t44 41t44 41t29 30q-34 -4 -68 0 t-56 -6q-10 -4 -19 -12t-17 -14q-16 -16 -30 -32t-30 -32q-8 -10 -15 -17l-15 -15q4 36 13 84t13 88q2 44 -28 53t-78 7q-2 0 -2 -4q-4 -30 -13 -84t-18 -109t-16 -100t-7 -55q-2 -22 6 -34t23 -18t35 -7t42 -1q8 36 12 73t12 71q10 -14 20 -32l20 -36q10 -16 22 -35t24 -29 q16 -12 37 -14t41 4t34 18t18 30q-24 6 -40 18t-27 29t-20 35t-19 34z" />
<glyph unicode="circlequora" d="M850 1436q174 0 326 -66t265 -179t179 -265t66 -326t-66 -326t-179 -266t-265 -180t-326 -66t-326 66t-266 180t-180 266t-66 326t66 326t180 265t266 179t326 66zM1178 222q-14 -4 -32 4q-16 6 -37 21t-43 45q88 58 143 150t59 204q2 88 -28 165t-85 135t-130 91 t-161 33q-88 0 -165 -33t-135 -91t-94 -135t-38 -165q-4 -88 26 -165t85 -135t130 -91t161 -33q62 0 120 18q18 -30 44 -62q28 -34 59 -43t59 -5q32 4 62 18v74zM868 966q44 0 82 -25t66 -67t43 -99t13 -121q-2 -70 -23 -129t-55 -103q-30 44 -63 60t-61 18q-34 2 -66 -10 v-74q14 4 26 2q10 -2 23 -9t25 -23q6 -8 11 -16t9 -18q-30 -10 -52 -10q-46 0 -84 25t-66 67t-43 99t-13 121t21 121t50 99t71 67t86 25z" />
<glyph unicode="circlereddit" d="M1122 868q-30 0 -52 22t-22 54q0 30 22 52t52 22t51 -22t21 -52q0 -32 -21 -54t-51 -22zM480 688q-70 -54 -100 -128q-30 26 -30 62q0 34 25 58t59 24q26 0 46 -16zM850 1434q174 0 326 -66t265 -179t179 -265t66 -326t-66 -326t-179 -266t-265 -180t-326 -66t-326 66 t-266 180t-180 266t-66 326t66 326t180 265t266 179t326 66zM1266 502q34 16 56 48t22 72q0 56 -39 95t-95 39q-28 0 -53 -12t-43 -30q-56 34 -125 55t-147 25l26 184l130 -30v-4q0 -54 36 -91t88 -37t87 37t35 91q0 52 -35 89t-87 37q-40 0 -70 -22t-44 -56l-154 36 q-8 2 -18 -4q-8 -4 -8 -14l-32 -216q-78 -2 -147 -22t-125 -54q-38 38 -90 38q-56 0 -95 -39t-39 -95q0 -36 18 -66t46 -48q-6 -22 -6 -46q0 -70 36 -130t98 -105t145 -71t177 -26t177 26t145 71t98 105t36 130q0 10 -1 20t-3 20zM814 724q80 0 152 -21t125 -56t84 -83 t31 -102t-31 -101t-84 -83t-125 -56t-152 -20q-82 0 -153 20t-124 56t-84 83t-31 101t31 102t84 83t124 56t153 21zM598 540q0 -24 17 -42t41 -18q26 0 43 18t17 42q0 26 -17 44t-43 18q-24 0 -41 -18t-17 -44zM1010 332q18 18 0 36t-36 0t-58 -30t-96 -12q-58 0 -96 12 q-40 12 -58 30t-36 0t0 -36q28 -30 80 -44q52 -16 110 -16t110 16q50 14 80 44zM984 480q26 0 43 18t17 42q0 26 -17 44t-43 18q-24 0 -41 -18t-17 -44q0 -24 17 -42t41 -18zM1210 704q36 0 60 -24t24 -58q0 -48 -42 -70q-26 72 -96 130q22 22 54 22z" />
<glyph unicode="circleretweet" d="M850 1436q174 0 326 -66t265 -179t179 -265t66 -326t-66 -326t-179 -266t-265 -180t-326 -66t-326 66t-266 180t-180 266t-66 326t66 326t180 265t266 179t326 66zM1006 286l-156 156h-158v210h158l-262 262l-262 -262h158v-314q0 -20 16 -36t36 -16h470zM1372 548h-156 v320q0 22 -16 34t-38 12h-470l158 -158h156v-208h-156l260 -262z" />
<glyph unicode="circlerss" d="M850 1438q174 0 326 -66t265 -179t179 -265t66 -326t-66 -326t-179 -266t-265 -180t-326 -66t-326 66t-266 180t-180 266t-66 326t66 326t180 265t266 179t326 66zM484 130q42 0 73 31t31 75q0 42 -31 73t-73 31q-44 0 -75 -31t-31 -73q0 -44 31 -75t75 -31zM954 130 q0 120 -45 225t-123 183t-183 123t-225 45v-192q80 0 150 -30t122 -82t82 -122t30 -150h192zM1320 130q0 194 -74 366t-202 300t-300 202t-366 74v-196q154 0 290 -59t237 -160t160 -237t59 -290h196z" />
<glyph unicode="circlescribd" d="M850 1434q174 0 326 -66t265 -179t179 -265t66 -326t-66 -326t-179 -266t-265 -180t-326 -66t-326 66t-266 180t-180 266t-66 326t66 326t180 265t266 179t326 66zM970 178q6 6 12 13t12 15q-28 46 -28 102q0 50 19 91t53 69v6q-14 44 -48 86q-32 40 -80 74 q-46 32 -136 72q-46 20 -76 38t-50 34q-36 32 -36 76q0 48 42 82q42 30 110 30q48 0 84 -16q-10 -24 -10 -44q0 -46 31 -77t75 -31t74 31t30 77q0 48 -36 80q-48 54 -110 80q-78 34 -150 34q-112 0 -192 -72q-78 -72 -78 -172q0 -44 14 -80q8 -18 18 -37t26 -37 q32 -38 72 -64q22 -14 50 -29t68 -31q38 -16 66 -30t46 -28q32 -24 58 -62q24 -40 24 -78q0 -64 -46 -106t-112 -42q-94 0 -158 74q32 32 32 78t-30 77t-74 31t-75 -31t-31 -77q0 -16 6 -28l-4 -2q48 -126 136 -194q88 -64 202 -64t200 82zM1146 184q52 0 87 36t35 88 t-35 89t-87 37q-50 0 -85 -37t-35 -89t35 -88t85 -36z" />
<glyph unicode="circlesharethis" d="M850 1434q174 0 326 -66t265 -179t179 -265t66 -326t-66 -326t-179 -266t-265 -180t-326 -66t-326 66t-266 180t-180 266t-66 326t66 326t180 265t266 179t326 66zM710 608l336 168q22 -18 49 -29t59 -11q70 0 118 48t48 118t-48 118t-118 48t-118 -48t-48 -118v-10 l-336 -168q-22 18 -49 29t-59 11q-70 0 -118 -48t-48 -118t48 -118t118 -48q62 0 108 40l336 -170v-8q0 -70 48 -119t118 -49t118 49t48 119q0 68 -48 117t-118 49q-32 0 -59 -11t-49 -29l-336 168v10v10z" />
<glyph unicode="circleskype" d="M850 1434q174 0 326 -66t265 -179t179 -265t66 -326t-66 -326t-179 -266t-265 -180t-326 -66t-326 66t-266 180t-180 266t-66 326t66 326t180 265t266 179t326 66zM904 128q74 4 141 37t112 83t62 112t-9 126q-26 62 -73 100t-107 61t-127 38t-135 31t-87 50t-4 67t58 58 t97 25t95 -25t74 -53t59 -51t50 -19q24 2 44 21t27 46t-4 60t-49 67q-66 58 -153 86t-215 16q-50 -4 -97 -23t-85 -52t-63 -82t-31 -113t25 -112t81 -83t113 -56t121 -29q42 -6 86 -19t74 -35t37 -52t-27 -70q-30 -36 -72 -46t-83 -5t-76 18t-49 23q-16 10 -33 30t-36 39 t-43 34t-52 13q-30 -2 -50 -21t-26 -48t6 -63t48 -68q32 -30 67 -54t79 -39t100 -21t130 -2z" />
<glyph unicode="circleslashdot" d="M850 1434q174 0 326 -66t265 -179t179 -265t66 -326t-66 -326t-179 -266t-265 -180t-326 -66t-326 66t-266 180t-180 266t-66 326t66 326t180 265t266 179t326 66zM1058 1016h-208l-366 -836h208zM1084 180q54 0 93 38t39 92t-39 92t-93 38t-92 -38t-38 -92t38 -92 t92 -38z" />
<glyph unicode="circleslideshare" d="M850 1434q174 0 326 -66t265 -179t179 -265t66 -326t-66 -326t-179 -266t-265 -180t-326 -66t-326 66t-266 180t-180 266t-66 326t66 326t180 265t266 179t326 66zM1008 912q-46 0 -79 -34t-33 -84q0 -48 33 -82t79 -34t79 34t33 82q0 50 -33 84t-79 34zM702 912 q-46 0 -79 -34t-33 -84q0 -48 33 -82t79 -34t79 34t33 82q0 50 -33 84t-79 34zM1356 664q16 32 15 44t-3 16q0 4 -6 4q-14 0 -34 -22q-12 -16 -43 -32t-65 -29t-64 -22t-38 -9h-166q-30 0 -62 -8t-32 -24v-28q-6 4 -12 10q-18 18 -40 31t-56 13h-6h-16q-44 0 -108 6t-108 16 q-24 6 -53 23t-57 35q-24 14 -43 25t-29 11q-2 0 -2 -2q-6 -16 2 -31t30 -43l10 -10q12 -16 43 -35t62 -35t56 -26l25 -10l2 -2v-188q0 -20 18 -44t43 -44t53 -33t48 -13q40 0 68 22t28 42v180l6 -4q14 -10 36 -12v-164q0 -10 7 -25t24 -30t46 -26t71 -11t70 22t44 51t22 55 t6 34v174l2 2q14 8 27 14t27 12q46 22 87 48t65 72z" />
<glyph unicode="circlesmugmug" d="M850 1434q174 0 326 -66t265 -179t179 -265t66 -326t-66 -326t-179 -266t-265 -180t-326 -66t-326 66t-266 180t-180 266t-66 326t66 326t180 265t266 179t326 66zM1120 1018q-40 0 -67 -21t-27 -51q0 -28 27 -49t67 -21t67 21t27 49q0 30 -27 51t-67 21zM696 1018 q-40 0 -68 -21t-28 -51q0 -28 28 -49t68 -21t67 21t27 49q0 30 -27 51t-67 21zM796 74q104 0 187 38t147 97t110 130t75 136t43 115t14 68q0 26 -11 41t-25 23q-16 8 -34 12h-806q-6 -2 -14 -8q-6 -6 -15 -16t-17 -28q-44 -88 -54 -193t27 -198t127 -155t246 -62zM530 286 q-24 40 -34 87t-8 95t15 92t31 80h740q-6 -24 -22 -68t-43 -96t-65 -107t-89 -100t-116 -73t-143 -28q-34 0 -71 5t-73 18t-68 36t-54 59z" />
<glyph unicode="circlesoundcloud" d="M850 1434q174 0 326 -66t265 -179t179 -265t66 -326t-66 -326t-179 -266t-265 -180t-326 -66t-326 66t-266 180t-180 266t-66 326t66 326t180 265t266 179t326 66zM372 582q-42 -36 -42 -88q0 -54 42 -86v174zM458 608h-10q-10 0 -17 -1t-17 -3v-220q10 -2 17 -3t17 -1 h10v228zM546 668q-26 -32 -36 -78q-2 2 -4 3t-4 3v-216h44v288zM632 730q-12 -4 -23 -10t-21 -12v-328h44v350zM720 736q-8 2 -14 3t-14 1q-4 0 -8 -1t-8 -1v-358h44v356zM806 740q-4 -8 -10 -14t-10 -12q-22 12 -44 18v-352h64v360zM1242 380q64 4 95 40t31 86q0 52 -35 88 t-89 36q-22 0 -48 -10q-10 82 -72 139t-148 57q-44 0 -81 -15t-67 -41v-380h414z" />
<glyph unicode="circlespotify" d="M850 1434q174 0 326 -66t265 -179t179 -265t66 -326t-66 -326t-179 -266t-265 -180t-326 -66t-326 66t-266 180t-180 266t-66 326t66 326t180 265t266 179t326 66zM388 992q-28 -18 -28 -48q0 -24 17 -41t41 -17q4 0 6 1t6 1q96 38 197 58t209 20t209 -20t195 -58 q4 0 7 -1t7 -1q24 0 40 17t16 41q0 36 -32 48q-102 40 -213 62t-229 22q-120 0 -232 -22t-216 -62zM836 782q96 0 187 -20t175 -56q4 0 5 -1t5 -1q10 0 18 5t14 11l6 24q0 18 -12 28q-92 40 -191 62t-207 22t-207 -22t-191 -62q-14 -14 -14 -28l8 -22q10 -16 30 -16 q10 0 14 2q170 74 360 74zM1182 550q8 16 0 31t-20 19q-74 38 -156 55t-170 17q-178 0 -332 -74q-6 -4 -14 -15t0 -31q8 -22 20 -24t20 2q146 68 306 68q80 0 154 -17t144 -47q34 -16 48 16zM1234 118q40 0 75 15t63 39q-36 70 -90 128t-121 99t-145 64t-162 23 q-88 0 -168 -24t-149 -68t-123 -106t-88 -136q50 -34 110 -34h128q50 68 125 108t165 40t166 -40t124 -108h90z" />
<glyph unicode="circlesquidoo" d="M850 1434q174 0 326 -66t265 -179t179 -265t66 -326t-66 -326t-179 -266t-265 -180t-326 -66t-326 66t-266 180t-180 266t-66 326t66 326t180 265t266 179t326 66zM1048 126q50 0 102 28t93 75t62 110t11 135t-44 114t-75 64t-82 29t-65 9q-50 2 -42 47t50 117 q14 26 18 58t-5 61t-29 54t-52 37h-108q28 0 51 -24t39 -54t5 -62t-31 -58q-24 -32 -60 -60q-2 16 -14 48t-39 70t-70 76t-107 64h-84q-6 0 -12 2t-14 2q32 -32 67 -54t63 -38q32 -18 49 -51t25 -67q8 -38 10 -80q-26 0 -56 8q-28 6 -63 17t-77 29q-32 14 -50 37t-29 50 t-18 57t-17 60q-16 -12 -28 -26t-22 -30q6 -16 11 -35t11 -41q18 -76 61 -128t89 -86q52 -38 116 -62q-52 -12 -104 -20q-44 -8 -90 -13t-80 -1q-12 2 -24 7t-12 13v-110q58 -16 132 -12t144 8q54 2 74 -19t25 -52t5 -69t14 -72q38 -94 109 -128t167 -34zM1108 602 q36 -12 62 -37t40 -58t15 -71t-13 -76t-40 -68t-58 -48t-68 -23t-72 7t-62 36t-40 57t-16 71t12 78q14 38 40 68t58 48t69 23t73 -7zM1084 328q34 0 57 25t23 61q0 30 -17 53t-45 31q-6 -30 -24 -42q-12 -10 -30 -11t-36 1q-6 -16 -6 -32q0 -36 22 -61t56 -25z" />
<glyph unicode="circlestackoverflow" d="M850 1434q174 0 326 -66t265 -179t179 -265t66 -326t-66 -326t-179 -266t-265 -180t-326 -66t-326 66t-266 180t-180 266t-66 326t66 326t180 265t266 179t326 66zM784 842l326 -264l66 80l-326 264zM666 620l376 -184l46 94l-376 184zM598 378l408 -94l24 102l-408 94z M588 126h418v106h-418v-106zM1216 546h-106v-472h-626v472h-106v-576h838v576zM1290 764l-256 330l-82 -64l256 -330zM1426 840l-176 380l-94 -44l176 -380z" />
<glyph unicode="circlestar" d="M850 1434q174 0 326 -66t265 -179t179 -265t66 -326t-66 -326t-179 -266t-265 -180t-326 -66t-326 66t-266 180t-180 266t-66 326t66 326t180 265t266 179t326 66zM1294 686q36 40 22 70t-68 30h-232l-112 232q-22 50 -55 50t-55 -50l-112 -232h-232q-56 0 -69 -30 t23 -70l2 -2l178 -216l-90 -262q-18 -52 4 -71t72 5l280 140l278 -140q50 -24 72 -5t4 71l-90 262l178 216z" />
<glyph unicode="circlestumbleupon" d="M850 1434q174 0 326 -66t265 -179t179 -265t66 -326t-66 -326t-179 -266t-265 -180t-326 -66t-326 66t-266 180t-180 266t-66 326t66 326t180 265t266 179t326 66zM1372 964h-156v-524q-4 -12 -21 -30t-27 -22h-68q-10 2 -25 18t-17 26v242q0 20 -6 52t-27 62t-61 51 t-108 21h-292q-38 0 -70 -19t-55 -48t-36 -63t-13 -64q0 -34 13 -59t31 -45t39 -34t37 -24l130 -50q16 -12 26 -29t14 -27q-4 -4 -8 -7t-10 -3h-336v-156h336q36 0 67 13t55 36t38 52t14 61q0 52 -34 109t-86 87l-130 52q-18 10 -26 17t-12 11q4 10 10 19t10 13h288 q22 0 34 -4q6 -2 8 -2q0 -2 2 -7t2 -15v-242q0 -36 17 -72t46 -65t64 -46t71 -17h68q36 0 72 19t66 48t48 66t18 73v526z" />
<glyph unicode="circletechnorati" d="M902 942q60 0 113 -18t92 -48t62 -71t23 -87t-23 -87t-62 -71t-92 -48t-113 -18t-114 18t-93 48t-62 71t-23 87t23 87t62 71t93 48t114 18zM850 1434q174 0 326 -66t265 -179t179 -265t66 -326t-66 -326t-179 -266t-265 -180t-326 -66t-326 66t-266 180t-180 266t-66 326 t66 326t180 265t266 179t326 66zM902 314q98 0 183 32t149 86t101 128t37 158t-37 157t-101 127t-149 86t-183 32t-184 -32t-150 -86t-101 -127t-37 -157q0 -80 33 -149t91 -123l-34 -266l222 158q74 -24 160 -24z" />
<glyph unicode="circletumblr" d="M850 1434q174 0 326 -66t265 -179t179 -265t66 -326t-66 -326t-179 -266t-265 -180t-326 -66t-326 66t-266 180t-180 266t-66 326t66 326t180 265t266 179t326 66zM1162 326q-76 -46 -150 -46q-42 0 -74 18q-26 16 -36 42q-4 12 -2 36t2 66v260h208v158h-208v208h-152 q-8 -70 -34 -120q-26 -48 -68 -80q-22 -18 -53 -30t-59 -22v-114h156v-350q0 -52 6 -91t40 -71q16 -16 39 -27t49 -19q28 -10 51 -14t57 -4q60 0 112 12q28 6 56 16t60 24v148z" />
<glyph unicode="circletwitterbird" d="M848 1436q174 0 326 -66t266 -179t180 -265t66 -326t-66 -326t-180 -266t-266 -180t-326 -66t-326 66t-265 180t-179 266t-66 326t66 326t179 265t265 179t326 66zM1264 780q58 44 102 106q-28 -12 -57 -20t-61 -12q32 20 56 49t34 63q-30 -16 -62 -29t-66 -19 q-28 28 -66 46t-84 18q-42 0 -79 -16t-64 -44t-43 -65t-16 -79q0 -12 1 -24t3 -22q-126 6 -234 62t-184 150q-28 -46 -28 -102q0 -52 25 -97t65 -73q-52 4 -92 26v-2q0 -76 47 -131t117 -69q-14 -4 -27 -6t-27 -2q-10 0 -19 1t-19 3q20 -60 71 -100t119 -40 q-52 -42 -117 -65t-135 -23q-14 0 -26 1t-24 3q68 -44 147 -68t165 -24q140 0 248 53t181 136t111 186t38 203v26z" />
<glyph unicode="circletwitter" d="M850 1434q174 0 326 -66t265 -179t179 -265t66 -326t-66 -326t-179 -266t-265 -180t-326 -66t-326 66t-266 180t-180 266t-66 326t66 326t180 265t266 179t326 66zM796 336q-40 0 -72 32t-32 72v158h418q40 0 73 32t33 72t-33 72t-73 32h-418v158q0 40 -32 72t-72 32 t-72 -32t-32 -72v-524q0 -78 27 -137t71 -98t100 -59t114 -20h314q40 0 73 33t33 73t-33 72t-73 32h-314z" />
<glyph unicode="circleviddler" d="M1096 842q28 0 47 -20t19 -48t-19 -48t-47 -20q-26 0 -45 20t-19 48t19 48t45 20zM850 1434q174 0 326 -66t265 -179t179 -265t66 -326t-66 -326t-179 -266t-265 -180t-326 -66t-326 66t-266 180t-180 266t-66 326t66 326t180 265t266 179t326 66zM1092 546q48 0 89 18 t72 49t49 73t18 92t-18 92t-49 74t-72 50t-89 18q-42 0 -80 -17t-68 -46t-50 -66t-26 -77h-8q-6 40 -26 77t-50 66t-68 46t-80 17q-48 0 -93 -19t-80 -51t-56 -75t-21 -93t17 -91t45 -71t64 -48t76 -18h52v-94l-262 74v-318l262 82v-110h382l-112 366h182zM636 842 q28 0 46 -20t18 -48t-18 -48t-46 -20t-46 20t-18 48t18 48t46 20z" />
<glyph unicode="circlevimeo" d="M850 1434q174 0 326 -66t265 -179t179 -265t66 -326t-66 -326t-179 -266t-265 -180t-326 -66t-326 66t-266 180t-180 266t-66 326t66 326t180 265t266 179t326 66zM1314 776q14 70 -7 113t-62 61t-93 12t-100 -32t-86 -71t-48 -107q40 24 70 21t46 -22t15 -52t-21 -69 q-40 -74 -75 -118t-57 -44q-20 0 -37 46t-39 134q-12 44 -20 101t-23 106t-42 79t-75 22q-46 -10 -95 -43t-91 -69q-50 -42 -96 -94l38 -48q22 16 44 26q18 10 35 12t27 -8q6 -8 18 -40t27 -77t32 -97t32 -100t29 -86t22 -54q12 -22 32 -45t46 -37t56 -16t64 18q32 20 97 73 t133 130t126 173t78 202z" />
<glyph unicode="circlevirb" d="M850 1434q174 0 326 -66t265 -179t179 -265t66 -326t-66 -326t-179 -266t-265 -180t-326 -66t-326 66t-266 180t-180 266t-66 326t66 326t180 265t266 179t326 66zM1110 964h-208l-158 -470l-164 470h-202l262 -732h210zM1268 754q44 0 74 31t30 75q0 42 -30 73t-74 31 t-75 -31t-31 -73q0 -44 31 -75t75 -31z" />
<glyph unicode="circlewww" d="M850 1434q174 0 326 -66t265 -179t179 -265t66 -326t-66 -326t-179 -266t-265 -180t-326 -66t-326 66t-266 180t-180 266t-66 326t66 326t180 265t266 179t326 66zM1272 300q48 66 48 166q0 40 -11 75t-29 65q-16 30 -46 50t-64 32l112 230v46h-214h-92l-124 -446 l-126 446h-90l42 -146l-84 -300l-126 446h-90l208 -694h8l128 452l130 -452h8l178 612h8h146l-146 -228v-16h60q34 0 57 -17t39 -39q14 -18 21 -50t7 -66q0 -56 -26 -102q-24 -42 -62 -42q-34 0 -58 24q-26 24 -42 64l-70 -30q20 -70 66 -108q42 -40 104 -40q80 0 130 68z " />
<glyph unicode="circlewikipedia" d="M850 1434q174 0 326 -66t265 -179t179 -265t66 -326t-66 -326t-179 -266t-265 -180t-326 -66t-326 66t-266 180t-180 266t-66 326t66 326t180 265t266 179t326 66zM1372 962l-2 2h-216l-4 -2v-22q0 -2 4 -6q2 -2 6 -2l18 -2q16 0 23 -4t13 -10q14 -10 4 -42l-192 -502 l-6 2l-122 274q0 2 1 3t1 3v2l100 204q10 16 17 30t11 20q8 14 15 17t29 5q10 0 10 8v22l-2 2h-176l-4 -2v-22q0 -2 4 -6q2 -2 6 -2l8 -2q30 0 36 -10q4 -6 5 -15t-9 -31l-78 -168l-68 156q-16 38 -18 51t24 17l14 2q8 0 8 8v22l-4 2h-186l-4 -2v-22q0 -8 14 -8q12 -2 19 -5 t13 -10t13 -22t19 -41q2 -4 4 -10t6 -14t8 -18l72 -156q2 -6 6 -14t7 -17t9 -21l-106 -232l-6 2q-48 110 -88 206q-18 42 -35 85t-34 83t-31 74t-22 58q-6 20 -6 30q0 20 32 20l24 2q10 0 10 8v20l-2 2h-104h-132l-2 -2v-22q0 -6 14 -6q38 -4 48 -14q8 -8 28 -54 q22 -60 54 -138t67 -160t68 -161t57 -139q12 -32 28 -35t38 37q10 20 25 53t32 71t34 77t33 75q14 -36 30 -75t32 -77t29 -70t23 -54q16 -34 33 -36t33 36q12 28 28 68t34 87t38 98t40 99l96 240q12 36 32 52t64 20q8 0 8 8v22z" />
<glyph unicode="circlewindows" d="M850 1434q174 0 326 -66t265 -179t179 -265t66 -326t-66 -326t-179 -266t-265 -180t-326 -66t-326 66t-266 180t-180 266t-66 326t66 326t180 265t266 179t326 66zM490 696q84 32 158 32q52 0 93 -17t73 -37l86 290q-14 8 -44 23t-56 21q-30 8 -70 8q-36 -2 -75 -10 t-85 -26zM532 340q56 0 97 -17t75 -39q8 26 21 68t25 86t23 82t17 58q-8 4 -16 10t-16 10q-68 34 -128 34q-10 0 -16 -2q-40 -4 -73 -11t-55 -17l-12 -4t-14 -4l-82 -286q84 32 154 32zM1206 496q-78 -26 -152 -26q-68 0 -114 17t-76 39l-84 -288q10 -6 29 -15t43 -19 t50 -17t50 -7q78 0 176 40zM1320 884q-82 -30 -158 -30q-64 0 -110 17t-76 39l-84 -290q82 -56 182 -56q82 0 160 38v2h4z" />
<glyph unicode="circlewordpress" d="M850 1434q174 0 326 -66t265 -179t179 -265t66 -326t-66 -326t-179 -266t-265 -180t-326 -66t-326 66t-266 180t-180 266t-66 326t66 326t180 265t266 179t326 66zM378 650q0 -70 19 -134t54 -119t84 -99t109 -72l-224 616q-20 -46 -31 -93t-11 -99zM850 180q84 0 156 26 q-4 4 -4 6l-144 396l-142 -410q62 -18 134 -18zM1084 364l48 158q34 92 34 152q0 44 -12 75t-26 55q-18 28 -32 55t-14 55q0 32 22 58t56 26q2 0 3 -1t3 -1q-62 58 -143 91t-173 33q-126 0 -228 -58t-166 -154h30h40t42 2l44 4q8 0 14 -5t6 -12t-4 -14t-14 -7q-8 0 -16 -2 q-20 -4 -38 -4l172 -510l104 310l-74 200q-10 0 -18 1t-16 3t-16 2q-10 0 -14 6t-3 14t6 13t15 5l44 -4q18 -2 40 -2h40h39t41 2l44 4q10 0 15 -5t6 -12t-3 -14t-14 -7q-8 0 -16 -2q-20 -4 -38 -4zM1086 244q106 60 170 167t64 239q0 62 -15 118t-43 108q2 -12 3 -24t1 -24 q0 -36 -8 -77t-28 -93z" />
<glyph unicode="circlexing" d="M850 1434q174 0 326 -66t265 -179t179 -265t66 -326t-66 -326t-179 -266t-265 -180t-326 -66t-326 66t-266 180t-180 266t-66 326t66 326t180 265t266 179t326 66zM588 388l156 264l-104 208h-210l106 -208l-158 -264h210zM954 494l314 574h-210l-314 -574l210 -368h208z " />
<glyph unicode="circleyahoobu&#x7a;&#x7a;" d="M850 1434q174 0 326 -66t265 -179t179 -265t66 -326t-66 -326t-179 -266t-265 -180t-326 -66t-326 66t-266 180t-180 266t-66 326t66 326t180 265t266 179t326 66zM902 126q64 0 121 25t100 68t68 100t25 121q0 66 -25 123t-68 99t-100 67t-121 25h-106v-156h106 q64 0 110 -46t46 -112q0 -64 -46 -110t-110 -46q-66 0 -112 46t-46 110v158v470h-156v-628q0 -64 25 -121t67 -100t99 -68t123 -25z" />
<glyph unicode="circleyahoo" d="M850 1434q174 0 326 -66t265 -179t179 -265t66 -326t-66 -326t-179 -266t-265 -180t-326 -66t-326 66t-266 180t-180 266t-66 326t66 326t180 265t266 179t326 66zM1168 798l10 5t14 3h76l12 16l40 38h-418l16 -54h112l-188 -178q-14 22 -37 54t-49 70t-53 79t-51 81h144 v34l2 12h-2v6h-470v-52h138q20 -20 63 -75t88 -115t79 -111t38 -61q0 -10 1 -40t1 -63t-1 -61t-5 -32q-8 -8 -27 -12t-40 -6t-40 -2h-27l-8 -48h44h62t62 1t46 1h69h75t63 -1t35 -1l2 50q-8 2 -30 2h-46h-44t-26 2q-2 8 -3 39t-2 66t-1 64t2 35q6 18 45 59t87 83t90 75 t52 37zM1302 358h-36l-40 6v-74l32 -4l34 -2zM1372 714q-4 0 -24 2t-43 5t-44 5t-27 4l2 -316l62 -6z" />
<glyph unicode="circleyelp" d="M850 1434q174 0 326 -66t265 -179t179 -265t66 -326t-66 -326t-179 -266t-265 -180t-326 -66t-326 66t-266 180t-180 266t-66 326t66 326t180 265t266 179t326 66zM606 1042q-24 -18 -32 -30t-7 -21t7 -16t12 -15l178 -290q10 -16 27 -27t31 -9q12 4 21 19t9 37l-2 338 q0 44 -60 56q-16 2 -39 1t-49 -6t-52 -14t-44 -23zM486 438q4 -22 23 -35t37 -5l180 62q20 8 34 24t16 32q4 16 -9 32t-31 24l-190 74q-18 8 -37 -7t-23 -43q-2 -38 -2 -70q0 -28 -1 -53t3 -35zM860 366q2 20 -8 35t-24 17q-14 0 -32 -9t-30 -25l-126 -150q-14 -16 -9 -43 t25 -35l132 -44q18 -8 43 8t25 36zM1206 330q8 26 -3 46t-29 24l-158 46q-20 4 -38 4t-26 -6t-7 -23t11 -35l100 -180q4 -10 15 -13t23 -3t23 5t17 15q18 26 32 48l24 40t16 32zM1186 586q24 4 27 28t-1 40q-4 8 -13 24t-21 33t-26 32t-24 25q-20 16 -40 16t-34 -16 l-102 -120q-12 -16 -16 -36t6 -36q10 -14 29 -21t39 -3z" />
<glyph unicode="circleyoutube" d="M1220 412q16 0 22 -10q8 -8 8 -28v-34h-60v34q0 18 6 28q10 10 24 10zM986 412q14 0 20 -8q8 -8 8 -24v-168q0 -16 -6 -22q-6 -8 -18 -8q-8 0 -16 4q-10 4 -16 12v202q8 8 14 10q4 2 14 2zM850 1434q174 0 326 -66t265 -179t179 -265t66 -326t-66 -326t-179 -266 t-265 -180t-326 -66t-326 66t-266 180t-180 266t-66 326t66 326t180 265t266 179t326 66zM614 576h-236v-64h80v-376h76v376h80v64zM616 784l100 284h-88l-52 -194h-6l-56 194h-86l102 -292v-192h86v200zM838 460h-68v-246q-4 -6 -10 -10l-12 -8q-12 -6 -18 -6q-10 0 -14 4 t-4 18v248h-68v-272q0 -28 12 -42q12 -16 34 -16q18 0 40 12q18 8 40 30v-36h68v324zM832 576q54 0 82 26q30 24 30 72v184q0 38 -30 66q-28 26 -78 26q-52 0 -82 -24q-32 -24 -32 -66v-186q0 -46 30 -72q28 -26 80 -26zM1084 382q0 40 -18 62q-14 20 -48 20q-18 0 -32 -8 q-16 -6 -28 -22v142h-70v-440h70v24q6 -8 13 -13t15 -9q14 -6 36 -6q30 0 46 18q16 20 16 52v180zM1060 580q24 0 44 10t44 34v-40h76v358h-76v-272q-8 -10 -24 -20q-12 -6 -20 -6q-14 0 -16 6q-6 6 -6 18v274h-76v-300q0 -32 14 -46q10 -16 40 -16zM1320 372q0 48 -26 72 q-24 24 -72 24q-46 0 -74 -26q-28 -28 -28 -70v-144q0 -48 26 -74q28 -28 72 -28q50 0 76 26q26 24 26 76v16h-70v-14q0 -30 -6 -38q-8 -8 -24 -8q-20 0 -24 10q-6 8 -6 36v60h130v82zM832 888q14 0 26 -6q8 -8 8 -20v-194q0 -16 -8 -22q-8 -8 -26 -8q-16 0 -22 8 q-10 6 -10 22v194q0 10 10 20q8 6 22 6z" />
<glyph unicode="circleinstagram" d="M840 412q-38 0 -71 14t-58 39t-39 59t-14 72t14 71t39 58t58 39t71 14q76 0 129 -53t53 -129q0 -38 -14 -72t-39 -59t-58 -39t-71 -14zM1132 596q0 18 -2 37t-6 35h82v-402q0 -16 -10 -26t-26 -10h-660q-16 0 -26 10t-10 26v402h82q-4 -16 -6 -35t-2 -37q0 -60 23 -114 t62 -94t93 -63t114 -23t114 23t93 63t62 94t23 114zM848 1434q174 0 326 -66t266 -179t180 -265t66 -326t-66 -326t-180 -266t-266 -180t-326 -66t-326 66t-265 180t-179 266t-66 326t66 326t179 265t265 179t326 66zM1316 962q0 46 -32 78t-78 32h-732q-46 0 -78 -32 t-32 -78v-732q0 -46 32 -78t78 -32h732q46 0 78 32t32 78v732zM1170 962q16 0 26 -11t10 -27v-110q0 -16 -10 -26t-26 -10h-110q-16 0 -27 10t-11 26v110q0 16 11 27t27 11h110z" />
<glyph unicode="roundedfivehundredpx" d="M1268 1434q86 0 162 -33t133 -90t90 -133t33 -162v-836q0 -86 -33 -163t-90 -134t-133 -90t-162 -33h-838q-86 0 -162 33t-133 90t-90 134t-33 163v836q0 86 33 162t90 133t133 90t162 33h838zM1210 336q88 0 125 55t37 127q0 74 -37 128t-125 54q-46 0 -80 -19t-58 -41 q-28 -26 -48 -60q-20 34 -46 60q-22 22 -57 41t-83 19t-78 -17t-46 -37q-20 -24 -28 -54q-10 26 -30 48q-16 18 -43 33t-67 15q-26 0 -45 -6t-33 -12q-16 -8 -26 -18l24 110h208v98h-278l-58 -292h104q8 14 20 24q10 10 25 17t37 7q44 0 63 -30t19 -68q0 -36 -30 -66 t-64 -30q-28 0 -43 11t-25 25q-10 16 -14 36h-104q8 -44 30 -80q18 -30 52 -54t92 -24t93 15t57 33q24 22 36 50q8 -28 28 -50q16 -18 46 -33t78 -15t83 16t57 38q26 24 46 56q20 -32 48 -56q24 -22 58 -38t80 -16zM1198 604q44 0 68 -24t24 -62q0 -36 -24 -60t-68 -24 q-22 0 -43 13t-37 29q-20 18 -36 42q16 22 36 42q16 16 37 30t43 14zM850 604q22 0 43 -14t37 -30q20 -20 36 -42q-16 -24 -36 -42q-16 -16 -37 -29t-43 -13q-46 0 -70 24t-24 60q0 38 24 62t70 24z" />
<glyph unicode="roundedaboutme" d="M1180 758q54 0 90 -42q24 -30 26 -78h-236q2 54 38 86q34 34 82 34zM1268 1434q86 0 162 -33t133 -90t90 -133t33 -162v-836q0 -86 -33 -163t-90 -134t-133 -90t-162 -33h-838q-86 0 -162 33t-133 90t-90 134t-33 163v836q0 86 33 162t90 133t133 90t162 33h838zM900 676 q0 68 -34 106q-34 34 -98 34q-80 0 -130 -74q-12 36 -42 54q-28 20 -78 20q-42 0 -76 -20q-30 -16 -52 -48v58h-64v-418h72v218q0 56 12 86q8 28 36 46q24 16 56 16q40 0 58 -24q18 -22 18 -70v-272h72v244q0 66 28 94q32 28 74 28q26 0 44 -12q16 -8 26 -30q6 -18 6 -60 v-264h72v288zM1372 598q0 102 -54 160t-138 58q-88 0 -142 -58q-56 -58 -56 -164q0 -102 54 -158t148 -56q74 0 120 34q48 36 66 100l-74 10q-18 -46 -44 -66t-68 -20q-52 0 -88 36q-38 36 -40 106h316v18z" />
<glyph unicode="roundedaddme" d="M1268 1434q86 0 162 -33t133 -90t90 -133t33 -162v-836q0 -86 -33 -163t-90 -134t-133 -90t-162 -33h-838q-86 0 -162 33t-133 90t-90 134t-33 163v836q0 86 33 162t90 133t133 90t162 33h838zM1268 702h-314v314h-210v-314h-314v-208h314v-314h210v314h314v208z" />
<glyph unicode="roundedama&#x7a;on" d="M1268 1434q86 0 162 -33t133 -90t90 -133t33 -162v-836q0 -86 -33 -163t-90 -134t-133 -90t-162 -33h-838q-86 0 -162 33t-133 90t-90 134t-33 163v836q0 86 33 162t90 133t133 90t162 33h838zM930 914q12 -18 13 -40t1 -44v-16q-18 -2 -40 -3t-44 -5q-34 -4 -66 -11 t-60 -21q-54 -24 -87 -72t-33 -118q0 -90 49 -135t119 -45q42 0 78 10q56 18 106 74q16 -22 26 -37t38 -39q16 -6 28 2q16 16 43 38t43 38q10 10 2 30q-16 22 -30 45t-14 63v182q0 58 -4 109t-44 91q-34 32 -82 45t-88 13h-24q-36 -2 -73 -12t-68 -31t-54 -54t-31 -81 q-4 -12 2 -17t12 -7l110 -14q16 2 20 22q6 34 30 50t52 20h8q18 0 35 -7t27 -23zM1272 262q14 10 6 22t-24 6q-6 -4 -13 -6t-13 -6q-92 -36 -185 -54t-183 -18q-142 0 -274 38t-244 104q-10 6 -15 -1t5 -15q102 -96 234 -151t282 -55q96 0 196 27t184 79q12 8 23 14t21 16z M1372 338q0 12 -4 20q-8 10 -51 14t-89 -10q-26 -10 -46 -24q-8 -4 -7 -10t9 -6q10 2 21 3t23 3q28 4 55 2t37 -12q6 -6 3 -23t-9 -38t-13 -41t-13 -34q-4 -8 2 -10t14 4q34 30 50 78t18 78v6zM778 604q0 48 24 73t58 35q20 4 41 6t43 2v-24q0 -34 -2 -63t-18 -59 q-22 -44 -64 -54q-2 0 -6 -1t-8 -1q-34 0 -51 24t-17 62z" />
<glyph unicode="roundedaol" d="M1268 1434q86 0 162 -33t133 -90t90 -133t33 -162v-836q0 -86 -33 -163t-90 -134t-133 -90t-162 -33h-838q-86 0 -162 33t-133 90t-90 134t-33 163v836q0 86 33 162t90 133t133 90t162 33h838zM966 1068q-52 0 -90 -37t-38 -89t38 -88t90 -36q54 0 91 36t37 88t-37 89 t-91 37zM1242 220l-10 16q-100 200 -290 294q-2 0 -4 2h-2l-2 2l-2 2q-6 2 -6 6q4 12 7 14t7 2h16q18 -4 36 -6t36 -2q40 0 85 13t101 41l16 10l-54 120l-18 -8q-22 -10 -53 -18t-67 -8q-40 0 -76 12l-8 4l-2 6q-2 2 -2 6t-2 8v6v26l-16 2q-28 6 -62 24l-10 6l-10 -4 q-66 -38 -99 -101t-43 -171q-4 -28 -6 -39t-4 -15q-22 -44 -50 -75t-59 -52t-60 -33t-51 -18l-22 -6l60 -160l18 6q66 16 113 40t81 51t58 55t46 56l14 20q4 4 8 4l8 -4q54 -24 94 -50t69 -52t46 -50t27 -40l10 -18z" />
<glyph unicode="roundedappstorealt" d="M850 1068q96 0 182 -37t150 -101t101 -149t37 -183t-37 -184t-101 -150t-150 -101t-182 -37q-98 0 -184 37t-150 101t-101 150t-37 184t37 183t101 149t150 101t184 37zM1110 546h-156v366h-210v-366h-156l262 -262zM1268 1434q86 0 162 -33t133 -90t90 -133t33 -162 v-836q0 -86 -33 -163t-90 -134t-133 -90t-162 -33h-838q-86 0 -162 33t-133 90t-90 134t-33 163v836q0 86 33 162t90 133t133 90t162 33h838zM850 74q108 0 203 41t166 112t112 167t41 204t-41 203t-112 166t-166 112t-203 41t-204 -41t-167 -112t-112 -166t-41 -203 t41 -204t112 -167t167 -112t204 -41z" />
<glyph unicode="roundedappstore" d="M1268 1434q86 0 162 -33t133 -90t90 -133t33 -162v-836q0 -86 -33 -163t-90 -134t-133 -90t-162 -33h-838q-86 0 -162 33t-133 90t-90 134t-33 163v836q0 86 33 162t90 133t133 90t162 33h838zM326 514q0 -20 24 -20h106l132 208h-238q-24 0 -24 -18v-170zM504 248 q22 14 0 26l-62 36q-20 10 -24 -12l-10 -94q-2 -10 3 -12t13 2zM524 302q20 -14 32 8l288 500q4 8 2 18t-12 14l-62 36q-8 4 -18 2t-14 -12l-286 -498q-14 -20 8 -34zM1002 494l-88 208h-62l-134 -208h284zM1098 460q18 -10 28 -7t22 9q14 4 28 20t4 38q-6 10 -30 54 t-54 101t-61 114t-53 93q-22 34 -47 77t-47 81t-40 61t-26 19q-12 -6 -3 -41t27 -81t39 -92t33 -74t38 -88t55 -121t53 -110t34 -53zM1178 330q14 -20 38 -10l24 16q10 4 13 15t-3 21l-30 56q-4 10 -14 13t-20 -1l-36 -18q-10 -4 -12 -14t4 -20zM1316 174q4 52 -4 88 q-6 30 -26 47t-60 -5q-6 -6 -15 -22t11 -44q10 -14 25 -22t29 -14t25 -12t15 -16zM1372 684q0 18 -24 18h-210l106 -208h104q24 0 24 20v170z" />
<glyph unicode="roundedapple" d="M1268 1434q86 0 162 -33t133 -90t90 -133t33 -162v-836q0 -86 -33 -163t-90 -134t-133 -90t-162 -33h-838q-86 0 -162 33t-133 90t-90 134t-33 163v836q0 86 33 162t90 133t133 90t162 33h838zM900 996q-24 -26 -41 -65t-11 -79q40 -4 78 16t64 50t41 70t9 80 q-36 -2 -75 -22t-65 -50zM1174 244q34 50 50 90t18 44l-21 10t-45 32t-44 58t-20 90q0 44 15 78t35 56t36 33t18 13q-22 30 -47 48t-50 28t-46 13t-33 3q-28 2 -55 -4t-51 -14t-44 -16t-34 -8t-32 7t-39 14t-43 13t-46 6q-62 0 -114 -32t-84 -86t-38 -118t5 -129t37 -124 t56 -103q14 -22 31 -44t36 -39t40 -27t45 -8q24 0 41 6t34 13t36 13t47 6t47 -6t36 -13t35 -13t42 -6q48 2 82 37t64 79z" />
<glyph unicode="roundedbebo" d="M1268 1434q86 0 162 -33t133 -90t90 -133t33 -162v-836q0 -86 -33 -163t-90 -134t-133 -90t-162 -33h-838q-86 0 -162 33t-133 90t-90 134t-33 163v836q0 86 33 162t90 133t133 90t162 33h838zM948 126q76 0 144 27t119 73t80 108t29 132q0 72 -22 134t-60 108t-89 72 t-109 26h-186q-38 0 -65 -20t-27 -58t27 -58t65 -20h186q34 0 64 -45t30 -111q0 -34 -15 -63t-40 -50t-59 -33t-72 -12h-94q-76 0 -119 47t-43 123v470q0 40 -33 66t-71 26q-40 0 -72 -26t-32 -66v-470q0 -76 29 -144t79 -121t118 -84t144 -31h94z" />
<glyph unicode="roundedbehance" d="M694 672q-12 -8 -27 -15t-35 -7h-96v156h82q22 0 38 -4t30 -10q16 -6 23 -22t7 -38q0 -44 -22 -60zM692 542q18 -10 27 -23t9 -39q0 -58 -38 -78q-24 -14 -58 -14h-96v158h98h33t25 -4zM1268 1434q86 0 162 -33t133 -90t90 -133t33 -162v-836q0 -86 -33 -163t-90 -134 t-133 -90t-162 -33h-838q-86 0 -162 33t-133 90t-90 134t-33 163v836q0 86 33 162t90 133t133 90t162 33h838zM1006 806h210v106h-210v-106zM824 374q26 46 26 100q0 52 -24 92q-22 36 -66 54q28 16 44 36q26 34 26 92t-26 96q-42 64 -148 68h-278v-628h260q22 0 42 2t38 6 q38 10 64 32q14 10 23 22t19 28zM1320 494q-2 18 -2 34q0 14 -1 28t-1 22q-4 28 -12 49t-20 41q-28 46 -68 66t-92 20q-88 0 -142 -60q-54 -64 -54 -178q0 -122 60 -176t140 -54q46 0 83 18t65 50q16 22 26 40t12 46h-106q-4 -28 -9 -29t-11 -7q-12 -10 -26 -17t-32 -7 q-34 0 -58 18q-18 12 -28 34t-12 62h288zM1124 650q36 0 60 -24q14 -12 20 -26t8 -54h-178q4 40 11 52t17 26q22 26 62 26z" />
<glyph unicode="roundedbing" d="M1268 1434q86 0 162 -33t133 -90t90 -133t33 -162v-836q0 -86 -33 -163t-90 -134t-133 -90t-162 -33h-838q-86 0 -162 33t-133 90t-90 134t-33 163v836q0 86 33 162t90 133t133 90t162 33h838zM850 126q96 0 182 26t150 72t101 106t37 130q0 68 -37 129t-101 106t-150 71 t-182 26q-42 0 -80 -4t-75 -16t-76 -32t-83 -50v378h-158v-618h2q2 -66 40 -125t101 -103t148 -70t181 -26zM850 682q62 0 116 -18t94 -48t64 -70t24 -86t-24 -87t-64 -71t-94 -47t-116 -17t-117 17t-95 47t-64 71t-24 87t24 86t64 70t95 48t117 18zM850 318q40 0 76 11 t63 31t43 46t16 56q0 62 -58 104t-140 42q-84 0 -142 -42t-58 -104q0 -30 16 -56t43 -46t63 -31t78 -11z" />
<glyph unicode="roundedblip" d="M1268 1434q86 0 162 -33t133 -90t90 -133t33 -162v-836q0 -86 -33 -163t-90 -134t-133 -90t-162 -33h-838q-86 0 -162 33t-133 90t-90 134t-33 163v836q0 86 33 162t90 133t133 90t162 33h838zM692 180l-262 260v-156l-52 -52l106 -106l52 54h156zM1018 180 q0 120 -47 227t-127 187t-187 127t-227 47v-170q84 0 162 -32t136 -90t89 -135t31 -161h170zM1320 180q0 182 -70 344t-192 283t-284 191t-344 70v-170q148 0 279 -57t229 -154t155 -228t57 -279h170z" />
<glyph unicode="roundedblogger" d="M740 722q-24 0 -41 17t-17 39q0 24 17 40t41 16h164q24 0 41 -16t17 -40q0 -22 -17 -39t-41 -17h-164zM1268 1434q86 0 162 -33t133 -90t90 -133t33 -162v-836q0 -86 -33 -163t-90 -134t-133 -90t-162 -33h-838q-86 0 -162 33t-133 90t-90 134t-33 163v836q0 86 33 162 t90 133t133 90t162 33h838zM1378 674l-2 14l-8 16l-14 10q-6 6 -24 6t-38 1t-39 3t-27 10q-14 12 -17 32t-7 48t-7 44t-6 26t-7 16t-8 16q-16 32 -43 61t-59 50t-66 34t-62 17h-208q-62 0 -116 -24t-95 -64t-65 -94t-24 -116v-346q0 -62 24 -116t65 -95t95 -64t116 -23h342 q62 0 116 23t94 64t64 95t24 116zM1076 494q22 0 39 -16t17 -40q0 -22 -17 -39t-39 -17h-336q-24 0 -41 17t-17 39q0 24 17 40t41 16h336z" />
<glyph unicode="roundedcoroflot" d="M1268 1434q86 0 162 -33t133 -90t90 -133t33 -162v-836q0 -86 -33 -163t-90 -134t-133 -90t-162 -33h-838q-86 0 -162 33t-133 90t-90 134t-33 163v836q0 86 33 162t90 133t133 90t162 33h838zM450 908q-4 -30 37 -34t101 2q28 2 54 -18t45 -58t30 -92t9 -122 q28 10 62 14q-2 16 -7 55t-19 85t-41 93t-71 81q24 2 58 -3t74 -29t86 -70t96 -124q10 4 19 6t19 6q-18 30 -55 79t-87 94t-113 71t-131 10q2 24 0 47t-9 39t-20 22t-31 -4q-20 -12 -26 -22t-5 -22t4 -26t1 -32q-2 -20 -14 -24t-25 -4t-26 -3t-15 -17zM812 132q42 0 80 16 t66 44t44 66t16 80t-16 80t-44 66t-66 44t-80 16t-80 -16t-67 -44t-45 -66t-16 -80t16 -80t45 -66t67 -44t80 -16zM1066 276q38 2 71 18t58 41t39 59t14 72q0 80 -56 136t-136 56q-46 0 -85 -20t-67 -54q76 -28 123 -95t47 -151q0 -36 -8 -62zM750 462q18 0 31 -13t13 -31 q0 -20 -13 -33t-31 -13q-20 0 -33 13t-13 33q0 18 13 31t33 13z" />
<glyph unicode="roundeddaytum" d="M1268 1434q86 0 162 -33t133 -90t90 -133t33 -162v-836q0 -86 -33 -163t-90 -134t-133 -90t-162 -33h-838q-86 0 -162 33t-133 90t-90 134t-33 163v836q0 86 33 162t90 133t133 90t162 33h838zM536 388h-106v-314h106v314zM692 598h-104v-524h104v524zM850 494h-106v-420 h106v420zM1006 806h-104v-732h104v732zM1162 598h-104v-524h104v524zM1320 912h-104v-838h104v838zM1320 1068h-890v-104h890v104z" />
<glyph unicode="roundeddelicious" d="M1268 1434q86 0 162 -33t133 -90t90 -133t33 -162v-836q0 -86 -33 -163t-90 -134t-133 -90t-162 -33h-838q-86 0 -162 33t-133 90t-90 134t-33 163v836q0 86 33 162t90 133t133 90t162 33h838zM1268 1016h-418v-418h-420v-418h420v418h418v418z" />
<glyph unicode="roundeddesignbump" d="M1268 1434q86 0 162 -33t133 -90t90 -133t33 -162v-836q0 -86 -33 -163t-90 -134t-133 -90t-162 -33h-838q-86 0 -162 33t-133 90t-90 134t-33 163v836q0 86 33 162t90 133t133 90t162 33h838zM692 860h104v-106l210 -208h-210v-210l210 210v314h104l-208 208zM744 598 h106l-210 208l-210 -208h106v-472h208v472zM902 232h-106v-106h106v106zM1268 284l-210 210l-208 -210h104v-158h208v158h106z" />
<glyph unicode="roundeddesignfloat" d="M1268 1434q86 0 162 -33t133 -90t90 -133t33 -162v-836q0 -86 -33 -163t-90 -134t-133 -90t-162 -33h-838q-86 0 -162 33t-133 90t-90 134t-33 163v836q0 86 33 162t90 133t133 90t162 33h838zM850 126q96 0 182 37t150 101t101 150t37 184t-37 183t-101 149t-150 101 t-182 37q-98 0 -184 -37t-150 -101t-101 -149t-37 -183t37 -184t101 -150t150 -101t184 -37zM850 764q70 0 118 -48t48 -118t-48 -119t-118 -49q-36 0 -66 13t-53 36t-36 54t-13 65t13 64t36 53t53 36t66 13zM850 1022q86 0 163 -33t135 -91t91 -135t33 -165t-33 -165 t-91 -135t-135 -91t-163 -33q-88 0 -165 33t-135 91t-91 135t-33 165t33 165t91 135t135 91t165 33zM744 956q-118 -26 -173 -108t-79 -198h102q22 78 66 129t84 73v104zM744 344q-20 10 -42 20t-42 25t-38 40t-28 65h-102q12 -60 31 -102t49 -72t72 -49t100 -31v104z M634 598q0 -44 17 -83t46 -68t68 -46t85 -17q44 0 83 17t68 46t46 68t17 83t-17 83t-46 68t-68 46t-83 17q-46 0 -85 -17t-68 -46t-46 -68t-17 -83zM902 240q58 12 109 31t90 49t67 72t40 102h-104q-10 -40 -29 -65t-44 -40t-58 -25t-71 -20v-104zM1208 650 q-26 118 -107 199t-199 107v-104q160 -42 202 -202h104z" />
<glyph unicode="roundeddeviantart" d="M1268 1434q86 0 162 -33t133 -90t90 -133t33 -162v-836q0 -86 -33 -163t-90 -134t-133 -90t-162 -33h-838q-86 0 -162 33t-133 90t-90 134t-33 163v836q0 86 33 162t90 133t133 90t162 33h838zM1384 590q-50 66 -136 112q-74 40 -193 62t-295 -8h-8l-44 92l-134 -16 l54 -112q-54 -22 -89 -50t-56 -60t-30 -65t-11 -65q-4 -74 28 -152l432 124l-118 240q80 22 150 16t124 -24q62 -22 116 -56l-146 -38l-42 78q-30 4 -64 6t-70 -4l100 -204zM586 470q-12 28 -6 56q4 24 22 54t64 60l64 -130z" />
<glyph unicode="roundeddiggalt" d="M1268 494h-52v156h52v-156zM1268 1434q86 0 162 -33t133 -90t90 -133t33 -162v-836q0 -86 -33 -163t-90 -134t-133 -90t-162 -33h-838q-86 0 -162 33t-133 90t-90 134t-33 163v836q0 86 33 162t90 133t133 90t162 33h838zM588 912h-104v-158h-158v-366h262v366v158z M744 754h-104v-366h104v366zM744 912h-104v-106h104v106zM1058 754h-262v-366h158v-52h-158v-104h262v104v52v366zM1372 754h-262v-366h158v-52h-158v-104h262v104v52v366zM430 650h54v-156h-54v156zM954 494h-52v156h52v-156z" />
<glyph unicode="roundeddigg" d="M588 354q22 0 37 -13t15 -31v-44h-174v44q0 18 15 31t37 13h70zM430 766q38 34 75 55t57 21q18 0 55 -21t75 -55v-168h-262v168zM1110 754h-156v158h156v-158zM1268 1434q86 0 162 -33t133 -90t90 -133t33 -162v-836q0 -86 -33 -163t-90 -134t-133 -90t-162 -33h-838 q-86 0 -162 33t-133 90t-90 134t-33 163v836q0 86 33 162t90 133t133 90t162 33h838zM1372 798h-156v218h-366v-218h-54v6q-42 34 -82 62q-36 22 -77 42t-75 20q-36 0 -77 -20t-77 -42q-42 -28 -82 -62v-310h210v-54q-28 -2 -56 -13t-51 -28t-37 -40t-14 -49v-98 q0 -14 10 -23t26 -9h278q34 0 34 32v66v32q0 52 -42 89t-96 41v54h86h88h44v-314h462v314h104v304zM1216 710h52v-112h-106v-314h-104v156h-44v-156h-112v314h-106v104h54v-52h366v60z" />
<glyph unicode="roundeddribble" d="M938 668q62 28 121 66t113 84q34 -48 51 -104t19 -114q-76 18 -150 18q-30 0 -62 -3t-66 -11l-12 32t-14 32zM1268 1434q86 0 162 -33t133 -90t90 -133t33 -162v-836q0 -86 -33 -163t-90 -134t-133 -90t-162 -33h-838q-86 0 -162 33t-133 90t-90 134t-33 163v836 q0 86 33 162t90 133t133 90t162 33h838zM850 126q96 0 182 37t150 101t101 150t37 184q0 96 -37 182t-101 150t-150 101t-182 37q-98 0 -184 -37t-150 -101t-101 -150t-37 -182q0 -98 37 -184t101 -150t150 -101t184 -37zM992 530q56 10 100 10q74 0 142 -20 q-16 -82 -65 -150t-121 -110q-8 70 -22 138t-34 132zM1122 878q-52 -42 -106 -77t-112 -61q-34 62 -72 121t-84 115q24 6 49 10t53 4q76 0 146 -29t126 -83zM622 278q52 84 127 143t165 89q46 -138 58 -284q-58 -20 -122 -20q-130 0 -228 72zM888 584q-100 -34 -184 -98 t-142 -154q-98 104 -104 248q16 -2 28 -2h26q90 0 179 15t173 47q8 -14 13 -28t11 -28zM830 710q-154 -54 -318 -54h-27t-23 2q14 92 69 168t139 120q92 -110 160 -236z" />
<glyph unicode="roundeddrupal" d="M1268 1434q86 0 162 -33t133 -90t90 -133t33 -162v-836q0 -86 -33 -163t-90 -134t-133 -90t-162 -33h-838q-86 0 -162 33t-133 90t-90 134t-33 163v836q0 86 33 162t90 133t133 90t162 33h838zM852 126q84 0 159 29t132 81t91 126t34 164t-29 156t-66 111t-71 70t-44 31 q-38 22 -73 35t-69 35q-22 16 -49 46t-53 58q-4 -46 -17 -69t-29 -37q-36 -28 -62 -40t-56 -28q-12 -6 -48 -31t-74 -68t-68 -108t-30 -153t35 -163t93 -129t134 -85t160 -31zM922 282q-22 -18 -28 -10q-6 10 8 22q8 8 19 17t23 13q12 6 20 6h18q12 0 22 -1t20 -7 q8 -6 13 -16t9 -16q4 -16 -8 -18q-6 -4 -14 10q-4 8 -12 15t-32 7t-35 -6t-23 -16zM1052 236q12 8 12 -2q4 -10 -2 -16q-4 -4 -32 -19t-66 -19t-82 -1t-76 31q-4 4 -4 9t4 9q8 6 14 6t8 -2q14 -10 37 -18t69 -8q44 0 74 10t44 20zM760 558q40 0 75 -17t64 -36t53 -35t46 -16 q18 0 41 14t48 30t48 30t39 14q34 0 47 -26t13 -48t-8 -55t-24 -57q-16 -22 -29 -32t-33 -8q-12 0 -30 17t-37 36t-39 36t-36 17q-20 0 -50 -17t-65 -38t-73 -38t-72 -17q-42 0 -59 5t-31 15q-44 28 -40 88q0 26 12 51t33 44t48 31t59 12zM764 856q-28 -30 -56 -52t-78 -52 q-52 -28 -76 -32t-26 -2t-7 9t5 23q16 26 39 47t46 37t42 27t29 15q6 4 33 18t57 36q20 16 33 34t19 64q8 -26 8 -62q-2 -16 -13 -26t-15 -14t-14 -9l-14 -7q-8 -2 0 -6q12 -4 12 -10q0 -4 -4 -13t-20 -25z" />
<glyph unicode="roundedebay" d="M664 524v140q52 -22 64 -58t8 -82h-72zM478 436q-28 0 -44 9t-24 22t-9 28t-1 29h264v-34h-52h-58q0 -20 -14 -37t-62 -17zM1044 814q64 -10 80 -40t16 -70v-80zM1268 1434q86 0 162 -33t133 -90t90 -133t33 -162v-836q0 -86 -33 -163t-90 -134t-133 -90t-162 -33h-838 q-86 0 -162 33t-133 90t-90 134t-33 163v836q0 86 33 162t90 133t133 90t162 33h838zM1476 860h-128l-98 -204l-90 204h-138l22 -46q-10 2 -21 2h-23q-28 0 -51 -5t-39 -17q-36 -22 -36 -82h96q0 20 5 36t31 16q28 0 34 -14t6 -36v-26q-42 2 -80 -2t-62 -24q-12 10 -27 17 t-37 7q-50 0 -78 -38h-2v176h-96v-160q-10 6 -23 9t-29 7q-26 4 -59 7t-75 3q-88 0 -138 -12t-77 -32t-34 -48t-7 -58q0 -34 8 -63t35 -50t77 -33t136 -12q40 0 73 4t61 10t52 16v-68h92v36h2q22 -44 80 -44q30 0 49 12t29 31t14 42t6 47q6 -2 22 -2q60 0 90 52h2l4 -46h92 l-4 32t-2 32v88l40 -78v-164h128v164zM478 640q32 0 49 -7t24 -18t8 -23t1 -22h-160q0 8 1 21t8 23t23 18t46 8zM962 578q0 22 6 34t18 16t27 5t33 3v-33t-3 -37t-14 -30t-31 -12q-24 0 -30 18t-6 36zM800 628q32 0 36 -32t4 -82q0 -64 -7 -92t-33 -28t-33 28t-7 92 q0 50 5 82t35 32zM734 490q-4 -48 -68 -76q0 -2 -2 -2v78h70zM904 662q-38 -26 -38 -88q0 -40 16 -69t54 -37v44q0 36 -4 80t-28 70z" />
<glyph unicode="roundedemail" d="M1268 1434q86 0 162 -33t133 -90t90 -133t33 -162v-836q0 -86 -33 -163t-90 -134t-133 -90t-162 -33h-838q-86 0 -162 33t-133 90t-90 134t-33 163v836q0 86 33 162t90 133t133 90t162 33h838zM378 378l252 180l-252 180v-360zM1320 300l-306 220l-164 -118l-166 118 l-306 -220v-120h942v120zM1320 738l-252 -180l252 -180v360zM1320 1016h-942v-122l472 -336l470 336v122z" />
<glyph unicode="roundedemberapp" d="M1222 600q0 -20 -3 -41t-3 -43q0 -58 -20 -115t-60 -107q-46 -60 -114 -92t-166 -36q-114 4 -197 59t-123 159q0 14 -15 27t-21 27q4 4 5 6t5 6v2q10 10 11 25t5 37q4 36 14 91t50 109q34 46 79 86t89 78q42 34 76 66t54 62q38 -30 86 -72t90 -90t73 -98t37 -96l12 -96z M1140 342q28 36 45 78t27 84l-26 -32l-12 96q-6 46 -37 96t-73 98t-90 89t-86 71q-20 -30 -54 -61t-76 -65q-44 -38 -89 -79t-79 -87q-40 -52 -51 -107t-15 -91q0 -8 -2 -10q110 -200 326 -208q198 6 292 128zM1268 1434q86 0 162 -33t133 -90t90 -133t33 -162v-836 q0 -86 -33 -163t-90 -134t-133 -90t-162 -33h-838q-86 0 -162 33t-133 90t-90 134t-33 163v836q0 86 33 162t90 133t133 90t162 33h838zM848 126q138 4 222 55t128 123t57 154t12 150t-10 109t-7 31q4 -16 -1 -32t-13 -30q-8 -16 -20 -32q-10 70 -64 144t-118 134 q-74 70 -164 136q-2 -32 -37 -68t-83 -77t-102 -87t-92 -100q-32 -44 -46 -89t-20 -83t-8 -63t-10 -27q-14 -6 -28 4q-8 4 -14 12q36 -122 91 -194t115 -109t117 -48t95 -13z" />
<glyph unicode="roundedetsy" d="M1268 1434q86 0 162 -33t133 -90t90 -133t33 -162v-836q0 -86 -33 -163t-90 -134t-133 -90t-162 -33h-838q-86 0 -162 33t-133 90t-90 134t-33 163v836q0 86 33 162t90 133t133 90t162 33h838zM1268 388h-30q-22 -40 -45 -80t-45 -64q-18 -18 -36 -31t-36 -19 q-20 -6 -50 -10t-72 -4h-164q-44 0 -60 10q-18 10 -24 26q-4 8 -9 29t-5 57v296h232q60 0 90 -18q30 -16 42 -42q6 -12 11 -35t9 -63h34v366h-34q-2 -40 -12 -75t-30 -51q-30 -30 -110 -30h-232v366h284q76 0 102 -10q36 -16 54 -44q10 -16 18 -39t16 -63h28l-10 208h-754 v-52h36q30 0 56 -2t38 -18q10 -10 19 -35t9 -75v-574q0 -40 -7 -62t-11 -34t-16 -18l-24 -12q-16 -10 -32 -8t-32 2h-36v-54h754z" />
<glyph unicode="roundedfacebook" d="M1268 1434q86 0 162 -33t133 -90t90 -133t33 -162v-836q0 -86 -33 -163t-90 -134t-133 -90t-162 -33h-838q-86 0 -162 33t-133 90t-90 134t-33 163v836q0 86 33 162t90 133t133 90t162 33h838zM1162 1068h-176q-52 0 -96 -18t-76 -47t-51 -67t-19 -76v-106h-156v-208h156 v-420h210v420h156v208h-156v52q0 26 19 40t33 14h156v208z" />
<glyph unicode="roundedfeedburner" d="M1268 1434q86 0 162 -33t133 -90t90 -133t33 -162v-836q0 -86 -33 -163t-90 -134t-133 -90t-162 -33h-838q-86 0 -162 33t-133 90t-90 134t-33 163v836q0 86 33 162t90 133t133 90t162 33h838zM766 1110q-48 -34 -93 -95t-81 -136t-58 -155t-22 -150q0 -98 25 -177 t67 -135t100 -87t126 -31q66 0 128 29t111 77t79 108t30 124q0 72 -18 124t-47 90t-67 66t-80 52q12 -64 1 -113t-40 -81t-70 -44t-89 2q46 78 58 131t5 94t-25 73t-34 66t-21 73t15 95zM850 84q96 0 182 16t150 44t101 65t37 79q0 38 -28 70t-78 60q-18 -56 -57 -106 t-90 -88t-112 -60t-125 -22q-120 2 -208 75t-128 205q-54 -28 -85 -61t-31 -73q0 -42 37 -79t101 -65t150 -44t184 -16zM830 212q-68 -2 -125 32t-86 96t-21 149t72 193q-14 -60 -5 -112t32 -90t55 -59t66 -21q76 -2 123 63t69 159q62 -48 79 -117t-7 -134t-87 -111 t-165 -48z" />
<glyph unicode="roundedflickr" d="M1268 1434q86 0 162 -33t133 -90t90 -133t33 -162v-836q0 -86 -33 -163t-90 -134t-133 -90t-162 -33h-838q-86 0 -162 33t-133 90t-90 134t-33 163v836q0 86 33 162t90 133t133 90t162 33h838zM588 388q44 0 82 16t66 45t44 67t16 82q0 88 -60 148t-148 60q-44 0 -82 -16 t-67 -44t-45 -66t-16 -82t16 -82t45 -67t67 -45t82 -16zM1110 388q44 0 82 16t66 45t45 67t17 82t-17 82t-45 66t-66 44t-82 16q-42 0 -80 -16t-67 -44t-45 -66t-16 -82t16 -82t45 -67t67 -45t80 -16z" />
<glyph unicode="roundedfoodspotting" d="M1268 1434q86 0 162 -33t133 -90t90 -133t33 -162v-836q0 -86 -33 -163t-90 -134t-133 -90t-162 -33h-838q-86 0 -162 33t-133 90t-90 134t-33 163v836q0 86 33 162t90 133t133 90t162 33h838zM378 494h106v522h-106v-522zM592 388h-192v-308h58v130h116v54h-116v72h134 v52zM804 108q30 32 30 84q0 50 -30 84q-30 32 -74 32q-32 0 -54 -14q-26 -16 -38 -42q-12 -28 -12 -58q0 -38 12 -64t38 -42q32 -14 54 -14q44 0 74 34zM1042 108q28 34 28 84t-28 84q-30 32 -76 32q-32 0 -54 -14q-24 -16 -36 -42q-14 -32 -14 -58q0 -20 4 -35t10 -29 q12 -26 38 -42q28 -14 52 -14q46 0 76 34zM1298 388h-54v-110q-24 30 -58 30q-38 0 -62 -30q-24 -28 -24 -86t26 -86q24 -32 58 -32q18 0 34 10q16 8 30 28v-32h50v308zM1320 912q0 42 -31 73t-73 31h-106l-52 104h-208l-54 -104h-104q-44 0 -74 -31t-30 -73v-314 q0 -44 30 -74t74 -30h524q42 0 73 30t31 74v314zM966 260q20 0 36 -18q14 -16 14 -50q0 -36 -14 -52q-16 -18 -36 -18q-22 0 -34 18q-14 16 -14 52q0 34 14 50q12 18 34 18zM730 260q18 0 34 -18q14 -16 14 -50q0 -36 -14 -52q-16 -18 -34 -18q-22 0 -36 18q-14 16 -14 52 q0 34 14 50q14 18 36 18zM1200 264q20 0 32 -18t12 -56q0 -34 -12 -52q-16 -16 -32 -16q-24 0 -36 22q-10 20 -10 52t14 50q12 18 32 18zM954 964q44 0 82 -17t66 -45t44 -66t16 -82q0 -88 -60 -148t-148 -60q-44 0 -82 16t-67 44t-45 66t-16 82t16 82t45 66t67 45t82 17z M954 650q44 0 74 30t30 74t-30 75t-74 31t-74 -31t-30 -75t30 -74t74 -30z" />
<glyph unicode="roundedforrst" d="M1268 1434q86 0 162 -33t133 -90t90 -133t33 -162v-836q0 -86 -33 -163t-90 -134t-133 -90t-162 -33h-838q-86 0 -162 33t-133 90t-90 134t-33 163v836q0 86 33 162t90 133t133 90t162 33h838zM1280 126l-430 942l-432 -942h388v214l-130 44v42l130 -42v170h86v-84l86 42 v-42l-86 -44v-86l172 86v-42l-172 -86v-172h388z" />
<glyph unicode="roundedfoursquare" d="M662 514l-16 -4q-28 -12 -52 -12q-66 0 -112 50t-46 120t46 119t112 49q32 0 61 -13t50 -36t34 -54t13 -65q0 -32 -12 -62l-4 -12l110 -166l412 448v-178l-412 -378zM1268 1434q86 0 162 -33t133 -90t90 -133t33 -162v-836q0 -86 -33 -163t-90 -134t-133 -90t-162 -33 h-838q-86 0 -162 33t-133 90t-90 134t-33 163v836q0 86 33 162t90 133t133 90t162 33h838zM1320 1028l-34 -38l-306 -328l-130 134l-54 -56q-22 68 -77 111t-125 43q-46 0 -85 -18t-68 -49t-46 -72t-17 -87t17 -87t46 -72t67 -50t82 -19l260 -274l300 316l-30 32l200 160v42 v266v32v14z" />
<glyph unicode="roundedfriendsfeed" d="M1268 1434q86 0 162 -33t133 -90t90 -133t33 -162v-836q0 -86 -33 -163t-90 -134t-133 -90t-162 -33h-838q-86 0 -162 33t-133 90t-90 134t-33 163v836q0 86 33 162t90 133t133 90t162 33h838zM1234 962h-138q-54 0 -99 -30t-73 -76v106h-138q-42 0 -79 -18t-65 -50 t-44 -73t-16 -89v-90h-152v-152h152v-366h152v366h76h76h6v-366h152v366h152v152h-152v90q0 34 17 55t35 21h138v154zM904 808q-12 -36 -12 -76v-90h-6h-76h-76v90q0 34 17 55t35 21h118z" />
<glyph unicode="roundedfriendstar" d="M1268 1434q86 0 162 -33t133 -90t90 -133t33 -162v-836q0 -86 -33 -163t-90 -134t-133 -90t-162 -33h-838q-86 0 -162 33t-133 90t-90 134t-33 163v836q0 86 33 162t90 133t133 90t162 33h838zM968 728q0 -16 1 -38t5 -44t11 -40t17 -28q8 -10 20 -10h2q70 0 70 114 q0 26 -7 50t-17 44t-24 32t-28 12h-4q-40 -6 -46 -92zM792 704q-10 -32 -4 -68t22 -60q6 -10 16 -19t26 -11h8q34 0 50 32t18 72q0 30 -12 57t-28 43q-14 16 -32 16q-14 0 -31 -8t-33 -54zM1314 556q10 56 4 100t-24 64q-16 18 -36 18h-6q-46 -4 -60 -37t-26 -97 q-6 -30 -18 -75t-39 -86t-72 -69t-113 -24q-74 4 -110 26t-53 52t-22 64t-17 64q-4 10 -6 18t-6 16q-10 24 -28 51t-44 51t-58 40t-70 16h-132v-98h96q22 0 55 -29t43 -79q34 -154 117 -232t209 -78h10q100 2 174 39t123 88t76 106t33 91z" />
<glyph unicode="roundedgdgt" d="M588 912h366v-314h-366v314zM1268 1434q86 0 162 -33t133 -90t90 -133t33 -162v-836q0 -86 -33 -163t-90 -134t-133 -90t-162 -33h-838q-86 0 -162 33t-133 90t-90 134t-33 163v836q0 86 33 162t90 133t133 90t162 33h838zM1268 1016l-158 -308v308l-52 52h-574l-54 -52 v-522l54 -54h470v-156h-470v-104l52 -54h522l52 54v260l158 262v314z" />
<glyph unicode="roundedgithub" d="M824 372q52 0 89 -25t37 -59q0 -36 -37 -61t-89 -25q-54 0 -91 25t-37 61q0 34 37 59t91 25zM808 728q-46 0 -79 32t-33 78t33 78t79 32t78 -32t32 -78t-32 -78t-78 -32zM1268 1434q86 0 162 -33t133 -90t90 -133t33 -162v-836q0 -86 -33 -163t-90 -134t-133 -90 t-162 -33h-838q-86 0 -162 33t-133 90t-90 134t-33 163v836q0 86 33 162t90 133t133 90t162 33h838zM822 66q60 0 112 18t91 48t62 70t23 86q0 44 -22 84t-61 70t-91 48t-112 18q-6 0 -12 -1t-12 -1q-4 10 -6 23t-2 25q0 14 2 31t6 17h8q50 0 93 19t75 51t51 75t19 91 q0 22 -9 49t-21 39l82 46v156l-172 -94q-28 20 -58 30t-68 10q-50 0 -93 -19t-75 -51t-50 -75t-18 -91q0 -56 25 -103t65 -79q-24 -48 -24 -102q0 -24 5 -47t15 -45q-52 -30 -83 -76t-31 -98q0 -46 22 -86t61 -70t91 -48t112 -18z" />
<glyph unicode="roundedgithubalt" d="M1268 1446q86 0 162 -33t133 -90t90 -133t33 -162v-836q0 -86 -33 -163t-90 -134t-133 -90t-162 -33h-838q-86 0 -162 33t-133 90t-90 134t-33 163v836q0 86 33 162t90 133t133 90t162 33h838zM1388 340q42 86 42 230q0 164 -94 276q18 56 18 116q0 80 -36 152 q-76 0 -130 -26q-60 -28 -130 -84q-46 10 -94 16t-100 6q-112 0 -214 -24q-76 56 -132 84q-54 28 -132 28q-36 -72 -36 -152q0 -30 5 -59t15 -57q-94 -108 -94 -276q0 -144 42 -230q34 -70 100 -111t138 -59q52 -16 106 -22q30 -4 56 -6t48 -2q22 -2 46 -2h52h60t56 2 q26 2 55 6t63 10q70 12 118 32q52 22 98 61t74 91zM1096 656q84 0 130 -58q48 -58 48 -142q0 -60 -22 -105t-56 -73q-36 -26 -84 -40q-52 -16 -98 -21t-104 -5h-116q-58 0 -103 5t-97 21q-48 14 -84 40q-34 28 -57 73t-23 105q0 84 48 142q46 58 130 58q16 0 50 -3t86 -11 q24 -4 51 -6t57 -2t57 2t53 6q52 8 86 11t48 3zM680 348q32 36 37 80t-7 86q-8 28 -29 52t-51 24t-50 -24q-32 -36 -37 -80t7 -86q10 -28 31 -52t49 -24t50 24zM1124 348q32 36 37 80t-7 86q-8 28 -29 52t-51 24t-50 -24q-32 -36 -37 -80t7 -86q10 -28 31 -52t49 -24t50 24z " />
<glyph unicode="roundedgooglebu&#x7a;&#x7a;" d="M1268 1434q86 0 162 -33t133 -90t90 -133t33 -162v-836q0 -86 -33 -163t-90 -134t-133 -90t-162 -33h-838q-86 0 -162 33t-133 90t-90 134t-33 163v836q0 86 33 162t90 133t133 90t162 33h838zM850 1016q-126 0 -233 -48t-171 -132l268 -256l402 370q-58 32 -127 49 t-139 17zM378 644q0 -148 130 -254l166 154l-258 244q-38 -70 -38 -144zM850 272q178 0 314 96l-296 280l-328 -304l-2 -4q-14 -28 -33 -56t-45 -46q12 -2 28 -4t38 -2q96 0 172 52l12 6l10 -2q68 -16 130 -16zM1206 402q114 104 114 242q0 80 -40 152t-116 124l-254 -236z " />
<glyph unicode="roundedgoogleplus" d="M1268 1416q86 0 162 -33t133 -90t90 -133t33 -162v-836q0 -86 -33 -163t-90 -134t-133 -90t-162 -33h-838q-86 0 -162 33t-133 90t-90 134t-33 163v836q0 86 33 162t90 133t133 90t162 33h838zM896 146q90 78 90 180q0 66 -30 108t-65 73t-65 56t-30 55q0 34 30 61t62 61 q20 22 35 58t15 84q0 28 -7 54t-19 54q-24 50 -70 78h86l86 52h-278q-28 0 -58 -4t-60 -10q-88 -18 -148 -90q-60 -70 -60 -158q0 -96 66 -156q68 -62 162 -62h21t25 2q-2 -4 -5 -13t-5 -13q-4 -16 -4 -28q0 -46 40 -94q-92 -2 -194 -32q-52 -16 -92 -46t-60 -70 q-24 -46 -24 -84q0 -56 28 -94t72 -61t94 -33t96 -10q168 0 266 82zM1396 956h-162v164h-82v-164h-162v-80h162v-162h82v162h162v80zM814 818q0 -64 -27 -102t-89 -38q-42 0 -75 25t-55 63t-34 81t-12 79q0 64 32 104q32 44 92 44q42 0 75 -26t53 -66q40 -84 40 -164z M870 342q8 -12 12 -22t7 -22t3 -26q0 -42 -18 -71t-47 -46t-64 -25t-71 -8q-40 0 -81 9t-77 29t-59 54t-23 78q0 58 36 93t88 51q68 20 136 20q24 0 32 -2l18 -12q18 -12 22 -16l18 -14q14 -10 22 -16l16 -16q12 -10 17 -18t13 -20z" />
<glyph unicode="roundedgoogletalk" d="M1268 1434q86 0 162 -33t133 -90t90 -133t33 -162v-836q0 -86 -33 -163t-90 -134t-133 -90t-162 -33h-838q-86 0 -162 33t-133 90t-90 134t-33 163v836q0 86 33 162t90 133t133 90t162 33h838zM792 972q76 -10 142 -38t114 -71t75 -98t27 -115q0 -76 -41 -140t-111 -110 q102 38 164 109t62 159q0 62 -33 118t-90 97t-133 65t-162 24h-14zM1088 358q126 46 205 135t79 199q0 78 -41 146t-112 119t-166 81t-203 30t-204 -32t-167 -85t-112 -124t-41 -149q0 -68 32 -128t83 -108t115 -82t126 -48q-14 -42 -47 -94t-89 -88q92 -10 174 8 q70 14 145 59t121 139q-28 -36 -72 -68q-38 -28 -96 -52t-140 -32q24 32 42 62t30 52q14 26 26 50q-120 28 -218 89t-138 149q-6 20 -10 40t-4 42q0 74 33 138t91 111t140 73t178 26q98 0 180 -25t141 -70t92 -107t33 -138q0 -102 -51 -186t-155 -132z" />
<glyph unicode="roundedgowallapin" d="M850 990q52 0 98 -20t80 -54t54 -80t20 -98t-20 -98t-54 -80t-80 -54t-98 -20t-99 20t-81 54t-54 80t-20 98t20 98t54 80t81 54t99 20zM850 598q58 0 98 41t40 99t-40 99t-98 41t-99 -41t-41 -99t41 -99t99 -41zM1268 1434q86 0 162 -33t133 -90t90 -133t33 -162v-836 q0 -86 -33 -163t-90 -134t-133 -90t-162 -33h-838q-86 0 -162 33t-133 90t-90 134t-33 163v836q0 86 33 162t90 133t133 90t162 33h838zM922 408q56 12 105 43t84 75t55 98t20 114q0 70 -26 131t-72 107t-107 73t-131 27t-132 -27t-108 -73t-72 -107t-26 -131q0 -60 20 -114 t55 -98t83 -75t106 -43l74 -288z" />
<glyph unicode="roundedgowalla" d="M554 278v-37t-4 -41q-2 -2 -6 -4t-14 -2q-32 0 -32 26q0 22 15 42t41 42v-26zM796 308q-14 -20 -44 -26h-14l2 4q10 22 27 31t27 9h4q4 -10 -2 -18zM584 926q32 -34 41 -54t7 -26q0 -4 -8 -8q-4 0 -6 -1t-4 -1q-14 0 -22 18t-8 38v34zM1268 1434q86 0 162 -33t133 -90 t90 -133t33 -162v-836q0 -86 -33 -163t-90 -134t-133 -90t-162 -33h-838q-86 0 -162 33t-133 90t-90 134t-33 163v836q0 86 33 162t90 133t133 90t162 33h838zM1358 158q10 22 14 52q-10 10 -19 17t-19 17q-10 8 -17 14t-15 14q0 12 -2 24l-4 24q-38 194 -169 302t-371 148 v10q6 44 13 96t8 100t-6 90t-27 68q-22 30 -62 34h-8q-34 0 -68 -26t-56 -110q-20 16 -44 28t-52 12q-38 0 -76 -24q-36 -20 -40 -66q0 -32 19 -68t48 -71t64 -67t65 -56q-24 -16 -56 -43t-64 -58t-56 -66t-30 -69q-10 -52 20 -90q30 -34 78 -34q16 0 40 6t55 25t67 55 t76 94q8 -28 4 -60t-38 -58l-22 -14q-66 -48 -112 -89t-46 -99q0 -34 22 -55t58 -21q22 0 43 9t27 29q10 30 10 64q14 -4 31 -6t35 -6q-8 -44 -8 -99t14 -107h50q-16 46 -16 102t8 102q16 -2 36 2q54 10 78 48q16 28 6 60q-10 34 -50 34q-24 0 -53 -17t-45 -51q-4 -6 -6 -11 t-6 -13q-18 2 -35 5t-31 7q-16 4 -30 6l-30 6q16 14 36 28t42 30l22 16q32 24 46 55t14 62t-8 60t-18 47l-18 38l-24 -36q-42 -70 -79 -109t-66 -59t-50 -25t-29 -5q-26 0 -40 18q-14 14 -10 46q6 30 32 63t60 65t68 57t54 39l32 22l-32 20q-34 24 -70 56t-65 66t-48 65 t-19 53q0 18 14 26q40 24 71 13t67 -45q-4 -30 -5 -52t-1 -30q0 -38 20 -72t60 -34q12 0 28 6q22 10 29 22t9 22q12 54 -66 132l-22 22q4 20 10 43t17 43t25 32t34 10q20 -4 28 -16q14 -20 19 -57t3 -82t-8 -92t-12 -83l-8 -60l24 -4q238 -34 363 -133t161 -281q-8 4 -14 6 l-12 4q-32 10 -71 17t-79 7q-132 0 -178 -94q-26 -52 -33 -112t7 -110h50q-14 42 -9 97t29 103q30 66 134 66q36 0 73 -7t65 -15q20 -6 44 -26q-2 -58 -27 -94t-55 -56t-55 -27t-27 -7l-52 -10l28 -24h82q46 18 92 61t58 119q2 0 2 -1t2 -1q14 -12 27 -25t29 -23z" />
<glyph unicode="roundedgrooveshark" d="M1268 1434q86 0 162 -33t133 -90t90 -133t33 -162v-836q0 -86 -33 -163t-90 -134t-133 -90t-162 -33h-838q-86 0 -162 33t-133 90t-90 134t-33 163v836q0 86 33 162t90 133t133 90t162 33h838zM850 74q108 0 203 41t166 112t112 167t41 204t-41 203t-112 166t-166 112 t-203 41t-204 -41t-167 -112t-112 -166t-41 -203t41 -204t112 -167t167 -112t204 -41zM850 1068q96 0 182 -37t150 -101t101 -149t37 -183q0 -58 -14 -113t-40 -103q-36 24 -71 67t-66 87t-56 83t-39 55q-76 84 -151 140t-185 88q-2 -58 0 -115t-3 -110t-23 -100t-58 -83 q-18 -16 -44 -28t-54 -20t-56 -11t-52 -1q-14 40 -22 80t-8 84q0 98 37 183t101 149t150 101t184 37z" />
<glyph unicode="roundedheart" d="M1268 1434q86 0 162 -33t133 -90t90 -133t33 -162v-836q0 -86 -33 -163t-90 -134t-133 -90t-162 -33h-838q-86 0 -162 33t-133 90t-90 134t-33 163v836q0 86 33 162t90 133t133 90t162 33h838zM862 180q32 0 82 30t107 81t111 117t93 137t56 143t-1 136q-30 102 -98 146 t-140 46q-60 0 -101 -25t-67 -55t-39 -55t-17 -25t-16 25t-36 55t-65 55t-101 25q-74 0 -143 -44t-99 -148q-20 -64 -1 -136t62 -143t101 -137t117 -117t111 -81t84 -30z" />
<glyph unicode="roundedhyves" d="M1268 1434q86 0 162 -33t133 -90t90 -133t33 -162v-836q0 -86 -33 -163t-90 -134t-133 -90t-162 -33h-838q-86 0 -162 33t-133 90t-90 134t-33 163v836q0 86 33 162t90 133t133 90t162 33h838zM1236 244q14 22 -1 49t-33 33q-8 2 -23 1t-21 5q-4 4 -3 30t1 42v388 q0 38 -2 83t12 63q4 4 15 8t22 9t20 10t11 11q2 10 -2 26t-11 31t-18 25t-19 10h-66q-40 -8 -77 -14t-71 -22q-10 -4 -20 -11t-14 -15q-10 -32 10 -53t42 -31q8 -4 23 -5t21 -7q8 -8 6 -32t-4 -40q-4 -40 -4 -74t4 -78q2 -14 5 -37t-9 -33q-4 -4 -15 -5t-24 -2l-26 -2 t-21 -3q-32 -4 -57 -7t-49 -8l-48 -10t-54 -11l-20 -5t-22 1q-6 2 -9 21t-3 27q-4 58 0 102t4 100v36t4 24t15 10t24 7t24 7t17 12q6 10 5 24t-5 24q-10 24 -28 35t-42 13t-53 -2t-59 -10q-44 -8 -80 -19t-52 -39v-18q10 -22 21 -34t29 -22q10 -4 25 -5t19 -7q6 -6 5 -31 t-1 -43q0 -66 3 -118t3 -116q2 -54 4 -114t8 -112q4 -18 5 -41t-5 -31q-4 -4 -11 -5t-11 -3q-16 -4 -34 -14t-20 -26q-2 -20 17 -41t39 -25q12 -4 22 -4t26 2q22 2 53 6t60 12t50 21t23 31q2 22 -13 40t-31 24q-6 2 -24 0t-24 8q-4 8 -3 23t1 25t-2 26t-3 33t0 31t5 20 q10 14 34 20t38 10q46 16 82 21t90 13q6 0 21 2t30 3t28 0t17 -5t3 -19t-1 -25v-50q0 -22 4 -51t-6 -39q-8 -6 -23 -6t-23 -4q-30 -14 -32 -30q-4 -24 24 -50t52 -28q40 -4 86 8t74 26l27 9t19 11z" />
<glyph unicode="roundedicondock" d="M1268 1434q86 0 162 -33t133 -90t90 -133t33 -162v-836q0 -86 -33 -163t-90 -134t-133 -90t-162 -33h-838q-86 0 -162 33t-133 90t-90 134t-33 163v836q0 86 33 162t90 133t133 90t162 33h838zM1320 600q0 28 -14 42q-14 16 -40 16h-6l-156 -14q-32 -4 -38 -20 q-2 -4 -1 -10t11 -14q28 -28 54 -36l14 -6l-8 -12q-6 -8 -26 -26l-124 -104q-4 -4 -12 -9t-16 -5q-22 0 -22 34v298l6 2q42 26 67 66t25 88q0 36 -15 69t-40 57t-58 38t-71 14t-72 -14t-59 -38t-40 -57t-15 -69q0 -50 27 -92t73 -66l6 -2v-300q0 -34 -22 -34q-16 0 -28 12 l-132 112q-20 18 -26 26l-8 12l14 6q26 8 54 36q10 8 11 14t-1 10q-6 16 -38 20l-156 14h-6q-26 0 -40 -16q-18 -18 -14 -42l16 -150q6 -36 26 -36q4 0 9 1t11 9q14 12 24 27t14 25l4 14l14 -8q6 -4 28 -26l280 -308q18 -22 46 -22q26 0 44 22l280 308q22 22 28 26l14 8 l4 -14q4 -10 14 -25t24 -27q6 -8 11 -9t9 -1q20 0 26 36zM850 998q46 0 78 -32t32 -76q0 -46 -32 -77t-78 -31t-79 31t-33 77q0 44 33 76t79 32z" />
<glyph unicode="roundedicq" d="M968 662l138 112l16 6q36 16 72 10q34 -4 46 -28l6 -18l-2 -14q-14 -36 -64 -56q-10 -6 -21 -8t-25 -4l-166 -20l-2 10l-2 4zM1194 574q34 -10 50 -38q20 -26 20 -58l-4 -26q-12 -40 -46 -58q-40 -20 -76 -6q-26 6 -36 22l-142 116l8 18l4 16l154 14l54 2zM766 476 q10 -4 20 -9t22 -5q2 -34 7 -70t5 -76v-52v-14q-16 -40 -50 -54q-34 -20 -74 -10q-42 12 -58 44q-12 20 -12 46l6 30q2 16 20 38zM1010 366q10 -16 15 -33t1 -37q-4 -36 -26 -48q-12 -8 -32 -4q-38 8 -60 58l-16 44l-20 116l22 8l18 8l56 -56l36 -44zM876 874l-2 54l2 12 q4 20 18 35t32 25q36 22 76 6q42 -8 62 -44q10 -20 10 -46l-4 -28q-8 -22 -20 -40l-122 -146q-20 14 -40 22zM658 866q-8 18 -12 35t-2 35q4 36 28 50q14 10 30 0q36 -8 62 -56l8 -20t8 -22l26 -158l-20 -6l-120 128zM496 620q-34 6 -50 36q-18 26 -4 58q16 42 54 56 q36 20 76 12l36 -16l118 -84q-18 -24 -22 -40l-194 -24zM714 528q-16 -12 -28 -24t-24 -22l-40 -34l-12 -6q-36 -18 -70 -14q-32 4 -44 20l-4 14l4 12q10 34 54 54q14 6 23 10t19 6l108 20l8 -26zM930 592q0 -18 -6 -35t-22 -29q-30 -26 -62 -26q-38 0 -64 26q-26 24 -26 64 q0 36 26 62q28 24 64 24q38 0 62 -24q28 -26 28 -62zM1268 1434q86 0 162 -33t133 -90t90 -133t33 -162v-836q0 -86 -33 -163t-90 -134t-133 -90t-162 -33h-838q-86 0 -162 33t-133 90t-90 134t-33 163v836q0 86 33 162t90 133t133 90t162 33h838zM1314 436q16 64 -12 116 l-8 10q-8 12 -17 23t-21 19q-10 8 -22 13t-22 11q32 16 54 35t32 47q8 22 2 41t-6 37v2q-30 20 -39 33t-35 21q-16 4 -32 4t-32 -2l-46 -10l16 34q20 62 -14 122l-4 6q-28 48 -90 64q-64 18 -120 -12q-28 -16 -53 -39t-25 -53v-2v-8l-6 8l-14 24q-30 50 -82 62 q-40 10 -80 -8q-42 -26 -50 -82q-12 -56 20 -112l10 -14l-34 10q-58 14 -116 -16q-56 -26 -80 -86q-22 -58 6 -106q12 -20 32 -34q24 -24 60 -30l10 -2l-20 -18q-16 -12 -24 -25t-14 -29q-10 -38 10 -72q10 -18 24 -26q10 -6 19 -11t21 -5q46 -12 96 2l-24 -38l-8 -18 q-20 -58 12 -118q6 -10 14 -20l16 -20q24 -22 62 -30q62 -18 120 10q56 28 74 92l2 8q40 -42 76 -54q44 -12 78 10q36 20 48 64q8 42 0 92q20 -14 44 -20q62 -20 118 8q56 32 74 92z" />
<glyph unicode="roundedidentica" d="M936 620q-24 -20 -36 -40q-26 -22 -59 -36t-71 -14q-48 0 -92 22l-142 -58l44 170q-14 38 -14 74q0 44 16 82t44 66t65 44t79 16t79 -16t64 -44t43 -66t16 -82q0 -68 -36 -118zM1268 1434q86 0 162 -33t133 -90t90 -133t33 -162v-836q0 -86 -33 -163t-90 -134t-133 -90 t-162 -33h-838q-86 0 -162 33t-133 90t-90 134t-33 163v836q0 86 33 162t90 133t133 90t162 33h838zM1158 280q50 26 80 75t30 107q0 44 -16 82t-43 66t-64 44t-79 16q-2 0 -4 -1t-4 -1q10 40 10 76q0 64 -24 121t-65 99t-96 66t-117 24q-64 0 -119 -24t-95 -66t-64 -99 t-24 -121q0 -68 24 -124l-58 -230l214 70q28 -12 58 -19t64 -7q52 0 100 18q4 -70 48 -123t108 -67l92 -120zM1066 574q44 0 74 -31t30 -77q0 -32 -15 -56t-39 -38l-28 -80l-40 68q-38 8 -62 37t-24 69q0 30 16 58l12 12t10 14q30 24 66 24z" />
<glyph unicode="roundedimessage" d="M1268 1434q86 0 162 -33t133 -90t90 -133t33 -162v-836q0 -86 -33 -163t-90 -134t-133 -90t-162 -33h-838q-86 0 -162 33t-133 90t-90 134t-33 163v836q0 86 33 162t90 133t133 90t162 33h838zM850 200q96 0 182 32t150 87t101 130t37 159t-37 159t-101 130t-150 87 t-182 32q-98 0 -184 -32t-150 -87t-101 -130t-37 -159q0 -102 53 -188t141 -144q-6 -36 -36 -61t-72 -29q32 -6 68 -6q96 0 158 44q74 -24 160 -24z" />
<glyph unicode="roundeditunes" d="M1268 1434q86 0 162 -33t133 -90t90 -133t33 -162v-836q0 -86 -33 -163t-90 -134t-133 -90t-162 -33h-838q-86 0 -162 33t-133 90t-90 134t-33 163v836q0 86 33 162t90 133t133 90t162 33h838zM850 74q108 0 203 41t166 112t112 167t41 204t-41 203t-112 166t-166 112 t-203 41t-204 -41t-167 -112t-112 -166t-41 -203t41 -204t112 -167t167 -112t204 -41zM850 1068q96 0 182 -37t150 -101t101 -149t37 -183t-37 -184t-101 -150t-150 -101t-182 -37q-98 0 -184 37t-150 101t-101 150t-37 184t37 183t101 149t150 101t184 37zM690 838h2v-360 q0 4 -17 5t-29 -1q-38 -4 -63 -35t-21 -69q4 -40 31 -64t67 -20q36 4 60 31t22 63h2v330l262 60v-250q0 4 -17 5t-29 -1q-38 -4 -63 -34t-21 -70q4 -38 32 -62t66 -20q36 4 60 31t24 63v472z" />
<glyph unicode="roundedlastfm" d="M1268 1434q86 0 162 -33t133 -90t90 -133t33 -162v-836q0 -86 -33 -163t-90 -134t-133 -90t-162 -33h-838q-86 0 -162 33t-133 90t-90 134t-33 163v836q0 86 33 162t90 133t133 90t162 33h838zM1132 320q80 0 134 47t54 117q0 68 -35 102t-109 56q-54 18 -89 33t-35 59 q0 30 21 50t55 20q46 0 80 -44l60 30q-46 82 -136 82q-70 0 -111 -39t-41 -103t41 -97t125 -61q46 -16 72 -31t26 -55t-32 -67t-84 -25q-54 2 -76 28t-42 70l-32 72t-29 66t-21 51t-10 25q-36 84 -103 128t-157 44q-58 0 -109 -22t-89 -60t-60 -89t-22 -109t22 -109t60 -89 t89 -60t109 -22q66 0 122 28t96 74l-36 84q-26 -50 -74 -80t-108 -30q-42 0 -79 16t-64 44t-43 65t-16 79t16 79t43 65t64 44t79 16q64 0 115 -34t73 -88l88 -204l12 -22q28 -64 70 -99t116 -35z" />
<glyph unicode="roundedlinkedin" d="M1268 1434q86 0 162 -33t133 -90t90 -133t33 -162v-836q0 -86 -33 -163t-90 -134t-133 -90t-162 -33h-838q-86 0 -162 33t-133 90t-90 134t-33 163v836q0 86 33 162t90 133t133 90t162 33h838zM588 806h-210v-680h210v680zM484 860q42 0 73 30t31 74t-31 74t-73 30 q-44 0 -75 -30t-31 -74t31 -74t75 -30zM1320 520q0 72 -40 141t-104 105q-58 32 -135 34t-139 -26v32h-210v-680h210v416l86 42q16 8 44 8t42 -10q12 -6 24 -26t12 -36v-394h210v394z" />
<glyph unicode="roundedmeetup" d="M1268 1434q86 0 162 -33t133 -90t90 -133t33 -162v-836q0 -86 -33 -163t-90 -134t-133 -90t-162 -33h-838q-86 0 -162 33t-133 90t-90 134t-33 163v836q0 86 33 162t90 133t133 90t162 33h838zM544 464q-12 30 -20 65t-14 71l-20 88t-26 80h-6q-14 0 -20 2q-4 0 -10 1 t-10 1h-2h-4q-26 -34 -38 -83t-22 -97l-24 48q-10 20 -21 41t-21 37h-14q-30 0 -48 -8l-2 -42q-2 -54 0 -102t16 -92q2 -2 10 -2q16 0 29 6t19 10q2 22 -4 48q0 6 -1 12t3 14q20 -26 34 -52q6 -10 11 -18t9 -16h10q6 0 12 1t12 1q6 2 24 2l4 -2q8 18 9 41t1 47q2 22 3 44 t11 38q10 -50 25 -97t33 -97q6 0 13 2t15 4q12 4 16 4h8zM638 434q20 0 41 5t37 11q-10 12 -22 12q-8 0 -24 -4q-16 -6 -26 -6q-4 0 -6 2q-12 0 -22 14q-16 26 -4 70q10 -2 23 -4t29 -2h6h12q8 30 5 68t-9 62q-4 0 -16 4q-16 6 -30 6h-6q-28 -4 -47 -38t-23 -72 q-4 -36 5 -73t43 -51q8 -2 16 -3t18 -1zM808 440q38 0 58 20q-4 12 -20 16q-12 -22 -38 -22t-44 24q-16 22 -4 50l20 -4t20 -2q12 0 28 4q-2 22 0 40t6 36q2 14 4 29t2 33q-28 22 -56 24q-76 -58 -72 -188q4 -28 34 -44t62 -16zM998 568q14 2 26 3t18 7q-10 6 -16 16l-17 17 t-19 11q-4 0 -4 -10q0 -14 -10 -14h-6v2q2 20 1 43t-3 49q-2 36 -3 72t5 66q-8 10 -21 19t-35 9q-6 0 -6 2q-12 -38 -9 -82t9 -88q4 -26 5 -50t-3 -46q-12 0 -18 2h-14q-12 0 -18 -6q-4 -8 -4 -18q10 -6 24 -8t30 -2l12 -2q0 -16 1 -28t3 -26q0 -18 1 -37t1 -41h16q8 2 26 2 v30t-2 28q0 20 -1 38t1 38q10 4 30 4zM1202 508q12 20 21 41t5 55q-10 8 -21 16t-25 8h-4h-4l-2 -14q0 -20 -1 -42t-6 -42t-15 -35t-28 -21q-4 22 -5 47t-3 49v40q-4 2 -7 4t-7 4q-10 6 -18 10t-22 6q-12 -132 26 -174q14 -16 38 -16q18 0 36 6l4 8q6 10 12 17t16 15 q2 6 10 18zM1460 552q12 24 17 60t-17 80q-40 24 -70 24q-40 0 -70 -36q-16 -18 -25 -44t-15 -53t-8 -53t-4 -44q-4 -2 -8 -2q-14 -4 -16 -8q16 -18 20 -47t8 -57q4 -24 6 -46t10 -38q4 -2 20 -2h14q14 0 20 -2q-10 28 -14 66t0 92q42 10 78 40t54 70zM1402 672 q16 -26 14 -51t-8 -41q-10 -28 -31 -50t-49 -30q10 46 24 94t46 78l2 4zM622 562q-2 2 -6 2h-8l2 4q2 32 24 56q4 -16 5 -32t-3 -28l-4 -2h-2h-8zM776 548q-10 0 -12 6q0 16 4 27t8 23q4 8 8 20l4 8l2 -8q4 -16 3 -38t-7 -38h-10z" />
<glyph unicode="roundedmetacafe" d="M1268 1434q86 0 162 -33t133 -90t90 -133t33 -162v-836q0 -86 -33 -163t-90 -134t-133 -90t-162 -33h-838q-86 0 -162 33t-133 90t-90 134t-33 163v836q0 86 33 162t90 133t133 90t162 33h838zM930 162q14 40 26 77t16 49q-12 8 -45 32t-67 52q-40 32 -90 68h250 q4 0 16 36t26 80q16 52 34 118q18 -66 34 -118q14 -44 27 -80t17 -36h132l-210 628l-170 -510h-548zM1320 402h-172l-52 160l-52 -160h-172l138 -104l-52 -172l138 108l138 -108l-52 172z" />
<glyph unicode="roundedmixx" d="M1268 1434q86 0 162 -33t133 -90t90 -133t33 -162v-836q0 -86 -33 -163t-90 -134t-133 -90t-162 -33h-838q-86 0 -162 33t-133 90t-90 134t-33 163v836q0 86 33 162t90 133t133 90t162 33h838zM1234 540q-50 -96 -148 -165t-226 -87q-114 -16 -215 12t-175 92 q60 -72 148 -114t194 -42q76 0 144 23t124 64t96 96t58 121zM1054 636q-26 -58 -79 -109t-127 -79q-64 -26 -126 -30t-114 12q34 -22 75 -34t87 -12q58 0 110 20t91 54t61 80t22 98zM594 1084q-12 -28 -4 -54l190 -454q10 -30 22 -46t16 -16l14 6q4 2 7 18t-5 50l-114 480 q-6 22 -24 37t-40 15q-14 0 -20 -2q-30 -10 -42 -34zM838 74q110 0 207 44t170 119t115 176t42 215q0 34 -4 65t-10 61q0 -10 1 -22t1 -22q0 -118 -43 -221t-117 -179t-173 -121t-211 -45q-82 0 -156 24t-138 67t-114 103t-82 132q24 -86 73 -158t117 -125t150 -83t172 -30z " />
<glyph unicode="roundedmobileme" d="M1268 1434q86 0 162 -33t133 -90t90 -133t33 -162v-836q0 -86 -33 -163t-90 -134t-133 -90t-162 -33h-838q-86 0 -162 33t-133 90t-90 134t-33 163v836q0 86 33 162t90 133t133 90t162 33h838zM1198 284q36 0 68 19t55 49t37 65t14 65q0 62 -40 92t-82 44q4 14 6 28t2 30 q0 48 -20 91t-54 75t-79 51t-97 19q-84 0 -149 -47t-89 -119q-42 52 -106 52q-60 0 -103 -48t-43 -116v-10q-6 2 -13 2h-13q-24 0 -53 -8t-54 -26t-42 -45t-17 -65q0 -36 14 -72t37 -64t55 -45t68 -17h698z" />
<glyph unicode="roundedmrwong" d="M1268 1434q86 0 162 -33t133 -90t90 -133t33 -162v-836q0 -86 -33 -163t-90 -134t-133 -90t-162 -33h-838q-86 0 -162 33t-133 90t-90 134t-33 163v836q0 86 33 162t90 133t133 90t162 33h838zM424 408q34 8 73 22t76 32t68 39t49 43q18 20 13 28t-20 6t-36 -8t-35 -12 q-16 -6 -50 -20t-70 -30q-42 -18 -90 -38q-16 -22 -22 -38q-4 -14 3 -23t41 -1zM1132 206q4 60 -2 97t-18 59t-29 33t-31 21q-18 10 -59 14t-87 6q0 40 -1 74t-3 54q26 4 38 8q44 12 63 49t23 77v80q36 2 61 2h35q12 0 29 1t32 4t24 8t9 15q-2 20 -20 24t-46 8q-10 0 -44 1 t-80 1q0 30 -2 61t-3 58t-4 47t-7 28q-14 28 -32 14t-18 -34v-174h-176h-16q2 40 4 76t4 58q6 52 -7 70t-29 22t-24 -14t-12 -40q-2 -10 -3 -60t3 -110q-46 0 -96 1t-78 -3q-12 0 -20 -10t-11 -22t-1 -23t12 -13q6 -2 27 -2h49t60 2t62 2q2 -36 6 -69t8 -57q10 -44 46 -63 t76 -23q0 -22 1 -55t1 -73h-68q-62 -2 -103 -33t-51 -63q-6 -16 -9 -40t-5 -48q-2 -28 0 -58q-2 -34 8 -50t21 -16t20 16t7 48q-6 84 22 126t52 46q10 2 40 2h66v-122t-2 -72q0 -18 9 -26t21 -6t22 15t10 39q0 20 1 67t-1 103q30 0 55 -1t39 -1q36 -2 53 -38t19 -122 q0 -38 9 -56t19 -17t19 21t13 56zM1246 450q12 -2 25 -6t24 -5t18 3t7 18q-2 14 -19 27t-42 25t-55 24t-58 24q-58 24 -82 24t-32 -22q-4 -14 1 -23t16 -15t23 -9l20 -5t28 -11t44 -20t47 -19t35 -10zM958 688q0 -20 -17 -33t-42 -18t-52 -3t-45 14q-18 10 -25 46t-9 82 q32 0 85 1t107 1v-54t-2 -36z" />
<glyph unicode="roundedmsn" d="M1268 1434q86 0 162 -33t133 -90t90 -133t33 -162v-836q0 -86 -33 -163t-90 -134t-133 -90t-162 -33h-838q-86 0 -162 33t-133 90t-90 134t-33 163v836q0 86 33 162t90 133t133 90t162 33h838zM502 544q66 -88 126 -132q-6 42 0 86t34 84q30 46 61 64t53 22v6 q-34 40 -75 69t-85 57q-34 22 -75 43t-80 38t-74 28t-59 11q-16 0 -20 -4q-2 -4 -3 -22t16 -60t58 -112t123 -178zM684 568q-28 -42 -32 -88t6 -90q38 -26 69 -36t53 -10q18 0 26 4q18 6 34 24t26 38q-10 18 -18 36t-18 40q-36 86 -48 156q-20 -4 -45 -19t-53 -55zM918 102 q6 4 12 22t10 44t7 54t1 50q0 4 -1 8t-1 8q-30 26 -66 96q-12 -20 -28 -36t-38 -26q-10 -4 -34 -4q-50 0 -112 34q20 -54 46 -84q12 -18 35 -46t50 -55t56 -47t55 -20q6 0 8 2zM842 492q40 -96 74 -145t50 -59v16q-2 32 -12 92t-42 134q-28 64 -49 106t-37 68q-14 22 -22 31 t-12 11q-4 -4 -4 -8q-2 -4 -2 -12v-2v-19t2 -25q4 -34 17 -82t37 -106zM862 666q16 -28 31 -60t31 -72q10 -22 17 -41t11 -39q10 -6 51 -25t117 -19h28t30 2q52 8 89 45t63 93q-4 16 -8 22q-12 28 -42 52t-70 42t-87 29t-95 11q-92 0 -166 -40zM1244 206q20 24 41 58t35 75 t20 85t0 86q-28 -50 -67 -83t-91 -41q-16 -2 -32 -3t-30 -1q-58 0 -97 12t-61 24q16 -74 16 -110q32 -48 66 -72q48 -34 80 -53t54 -19q10 0 25 7t41 35zM1392 828q4 74 -11 137t-49 97q-30 32 -74 32q-10 0 -30 -4q-46 -10 -105 -49t-116 -93t-102 -119t-63 -127q2 -4 4 -6 t4 -6q80 42 178 42q52 0 102 -11t93 -31t75 -47t48 -59q20 56 31 119t15 125z" />
<glyph unicode="roundedmyspace" d="M1268 1434q86 0 162 -33t133 -90t90 -133t33 -162v-836q0 -86 -33 -163t-90 -134t-133 -90t-162 -33h-838q-86 0 -162 33t-133 90t-90 134t-33 163v836q0 86 33 162t90 133t133 90t162 33h838zM1012 1068q-58 0 -100 -41t-42 -99t42 -100t100 -42t99 42t41 100t-41 99 t-99 41zM738 1036q-46 0 -77 -32t-31 -76q0 -46 31 -78t77 -32t77 32t31 78q0 44 -31 76t-77 32zM530 1010q-34 0 -58 -24t-24 -58t24 -59t58 -25t59 25t25 59t-25 58t-59 24zM1216 540q0 40 -16 75t-43 61t-63 41t-76 15t-76 -15t-62 -41q-12 46 -51 76t-89 30 q-34 0 -62 -14t-50 -36q-8 32 -35 53t-61 21q-42 0 -72 -29t-30 -71v-160h158v-158h208v-208h420v360z" />
<glyph unicode="roundednewsvine" d="M1268 1434q86 0 162 -33t133 -90t90 -133t33 -162v-836q0 -86 -33 -163t-90 -134t-133 -90t-162 -33h-838q-86 0 -162 33t-133 90t-90 134t-33 163v836q0 86 33 162t90 133t133 90t162 33h838zM902 524v206l122 90q20 -10 38 -10q30 0 51 22t21 52t-21 52t-53 22 q-30 0 -52 -22t-22 -52q0 -4 2 -5t2 -5l-88 -66v312h-106v-164l-88 66q0 4 1 7t1 7q0 30 -21 52t-53 22q-30 0 -52 -22t-22 -52q0 -32 22 -53t52 -21q20 0 34 8l126 -92v-206l-88 66q0 4 1 6t1 6q0 30 -21 52t-53 22q-30 0 -52 -22t-22 -52t22 -52t52 -22q18 0 34 10 l126 -94v-218l-88 66q0 4 1 6t1 6q0 30 -21 52t-53 22q-30 0 -52 -22t-22 -52q0 -32 22 -53t52 -21q16 0 36 10l124 -94v-220h106v74l122 90q14 -12 38 -12q30 0 51 22t21 52q0 32 -21 53t-53 21q-30 0 -52 -21t-22 -53q0 -2 2 -4t2 -4l-88 -66v220l122 90q18 -12 38 -12 q30 0 51 22t21 52q0 32 -21 53t-53 21q-30 0 -52 -21t-22 -53q0 -2 2 -4t2 -4z" />
<glyph unicode="roundedpaypal" d="M984 820q-18 -40 -56 -69t-80 -29h-4l22 98h118zM1268 1434q86 0 162 -33t133 -90t90 -133t33 -162v-836q0 -86 -33 -163t-90 -134t-133 -90t-162 -33h-838q-86 0 -162 33t-133 90t-90 134t-33 163v836q0 86 33 162t90 133t133 90t162 33h838zM632 276l62 248h180 q64 0 123 21t106 59t80 92t47 120q16 74 0 131t-51 95t-83 57t-96 19h-430l-192 -842h254zM1312 702q16 70 2 120t-44 86q16 -32 19 -70t-7 -88q-14 -66 -47 -123t-80 -99t-106 -65t-123 -23h-182l-60 -264h-214l-10 -50h254l60 266h182q64 0 123 23t106 65t80 99t47 123z M802 722h-72l54 248h124q42 0 67 -32t21 -76q-10 4 -18 6t-18 2h-124z" />
<glyph unicode="roundedphotobucket" d="M1022 860q64 -44 102 -112t38 -150q0 -84 -38 -152t-102 -110q-12 -10 -36 -20q-2 -2 -3 -2t-3 -2q-10 -4 -19 -7t-19 -7h-2q-22 -8 -38 -10h-10q-10 -4 -21 -4h-21h-23t-21 4h-10q-16 2 -38 10h-2q-10 4 -19 7t-19 7q-2 2 -3 2t-3 2q-16 8 -36 20q-64 42 -102 110 t-38 152q0 82 38 150t102 112q10 4 18 9t18 11q2 0 3 1t3 1q20 10 38 16h2q10 4 19 5t19 3q4 2 10 2q10 2 21 3t23 1q10 0 21 -1t21 -3q6 0 10 -2q10 -2 19 -3t19 -5h2q18 -6 38 -16q2 0 3 -1t3 -1q10 -6 19 -11t17 -9zM1110 598q0 54 -20 102t-56 83t-83 56t-101 21v-54 q42 0 80 -16t67 -44t45 -66t16 -82h52zM1268 1434q86 0 162 -33t133 -90t90 -133t33 -162v-836q0 -86 -33 -163t-90 -134t-133 -90t-162 -33h-838q-86 0 -162 33t-133 90t-90 134t-33 163v836q0 86 33 162t90 133t133 90t162 33h838zM1372 860q0 22 -15 37t-37 15h-284 q-40 24 -87 38t-99 14t-100 -14t-88 -38h-22h-52q0 22 -15 37t-37 15h-106q-22 0 -37 -15t-15 -37q-22 0 -37 -15t-15 -37v-524q0 -22 15 -37t37 -15h284q82 -52 188 -52q104 0 186 52h74h52h158q22 0 37 15t15 37v524zM594 860q-52 -52 -81 -119t-29 -143t29 -144t81 -118 h-164h-52v524h52h106h52h6zM1268 860h52v-524h-52h-106h-14h-22h-16h-6q52 50 82 118t30 144t-30 143t-82 119h22h142z" />
<glyph unicode="roundedpicasa" d="M1268 1434q86 0 162 -33t133 -90t90 -133t33 -162v-836q0 -86 -33 -163t-90 -134t-133 -90t-162 -33h-838q-86 0 -162 33t-133 90t-90 134t-33 163v836q0 86 33 162t90 133t133 90t162 33h838zM844 1120q-90 0 -180 -34q4 -4 34 -30t74 -65t94 -84t93 -84t71 -67t28 -32 v350q-40 22 -98 34t-116 12zM326 596q0 -70 20 -136q4 4 39 35t85 78t109 100t109 99t84 77t36 33q-4 2 -34 30t-66 61t-66 60t-32 29q-132 -68 -208 -192t-76 -274zM588 600q-58 -54 -106 -96q-40 -36 -74 -68t-36 -34q32 -78 85 -143t131 -111v452zM896 74q138 14 250 86 t172 228h-678v-270q76 -34 160 -44h96zM1342 440q16 40 21 80t5 84q0 138 -69 253t-189 187v-604h232z" />
<glyph unicode="roundedpinterest" d="M1268 1434q86 0 162 -33t133 -90t90 -133t33 -162v-836q0 -86 -33 -163t-90 -134t-133 -90t-162 -33h-838q-86 0 -162 33t-133 90t-90 134t-33 163v836q0 86 33 162t90 133t133 90t162 33h838zM1114 418q36 30 61 72t41 92t22 101t0 99q-6 52 -32 101t-68 87t-96 64 t-114 32q-92 10 -177 -12t-150 -69t-105 -117t-40 -158q0 -84 30 -136t106 -80q26 24 27 45t-9 42t-24 44t-16 51q-8 74 29 141t99 109t142 50t160 -38q38 -22 60 -63t31 -92t4 -106t-24 -101t-51 -80t-76 -42q-28 -6 -57 1t-41 19q-32 30 -26 68t22 82t29 90t-5 88 q-16 36 -45 43t-57 -7t-51 -42t-29 -60q-4 -34 6 -67t10 -65q0 -36 -10 -77t-23 -84t-26 -84t-19 -77q-4 -28 -7 -76t5 -78l-2 -2h66q34 58 58 136t42 150q10 10 15 -4t15 -20q30 -24 72 -29t84 1t81 22t63 36z" />
<glyph unicode="roundedpodcast" d="M1268 1434q86 0 162 -33t133 -90t90 -133t33 -162v-836q0 -86 -33 -163t-90 -134t-133 -90t-162 -33h-838q-86 0 -162 33t-133 90t-90 134t-33 163v836q0 86 33 162t90 133t133 90t162 33h838zM848 126q64 0 109 56t45 168q0 56 -13 86t-34 44t-49 16t-58 2t-58 -2 t-49 -16t-34 -44t-13 -86q0 -112 45 -168t109 -56zM744 614q0 -40 30 -69t74 -29t74 29t30 69t-30 68t-74 28t-74 -28t-30 -68zM1178 560q0 4 1 9t1 9q0 64 -26 124t-71 107t-105 75t-128 28q-70 0 -130 -28t-106 -75t-72 -107t-26 -124q0 -4 1 -9t1 -9q4 60 31 106t72 77 t104 47t125 16t124 -16t102 -47t71 -77t31 -106zM1370 578q0 102 -41 191t-112 155t-166 105t-203 39t-203 -39t-166 -105t-112 -155t-41 -191v-20q4 98 46 174t113 127t164 78t199 27t199 -27t163 -78t113 -127t47 -174v20z" />
<glyph unicode="roundedposterous" d="M894 1026q104 0 169 -81t65 -209q0 -138 -65 -219t-173 -81q-76 0 -135 46t-79 122q-6 24 -6 58v132q0 24 8 56q20 78 80 127t136 49zM1268 1434q86 0 162 -33t133 -90t90 -133t33 -162v-836q0 -86 -33 -163t-90 -134t-133 -90t-162 -33h-838q-86 0 -162 33t-133 90 t-90 134t-33 163v836q0 86 33 162t90 133t133 90t162 33h838zM914 342q62 0 123 24t109 73t78 125t30 180q0 84 -23 153t-65 118t-100 77t-128 28q-180 0 -264 -142l-6 -4h-10l-8 130h-108q2 -54 4 -112t2 -128v-790h122v380l2 8h12l2 -4q34 -54 94 -85t134 -31z" />
<glyph unicode="roundedqik" d="M566 664q10 2 23 0t21 -8q14 -10 18 -29t1 -40t-13 -40t-22 -29t-35 -12t-41 10q-16 10 -20 29t0 40t13 39t21 28t34 12zM1268 1434q86 0 162 -33t133 -90t90 -133t33 -162v-836q0 -86 -33 -163t-90 -134t-133 -90t-162 -33h-838q-86 0 -162 33t-133 90t-90 134t-33 163 v836q0 86 33 162t90 133t133 90t162 33h838zM720 470q6 34 12 66t10 66q4 68 -30 104t-94 40q-66 4 -112 -15t-74 -51q-22 -24 -36 -53t-18 -69q-4 -62 38 -103t118 -33q10 2 18 4t16 6q12 4 21 13t19 15q-4 -18 -7 -40t-1 -40t13 -31t35 -13h2h50q6 36 11 69t9 65zM906 636 q4 18 6 36t-6 32q-10 20 -38 22t-62 2q-2 0 -2 -4q-6 -46 -14 -99t-16 -105q-4 -18 -5 -38t7 -32q10 -16 40 -18t60 0q8 46 15 99t15 105zM892 760q20 8 34 25t4 45q-6 20 -38 30h-22q-28 -10 -47 -25t-11 -47q6 -24 32 -31t48 3zM1174 596q8 10 29 30t44 41t44 41t29 30 q-34 -4 -68 0t-56 -6q-10 -4 -19 -12t-17 -14q-16 -16 -30 -32t-30 -32q-8 -10 -15 -17l-15 -15q4 36 13 84t13 88q2 44 -28 53t-78 7q-2 0 -2 -4q-4 -30 -13 -84t-18 -109t-16 -100t-7 -55q-2 -22 6 -34t23 -18t35 -7t42 -1q8 36 12 73t12 71q10 -14 20 -32l20 -36 q10 -16 22 -35t24 -29q16 -12 37 -14t41 4t34 18t18 30q-24 6 -40 18t-27 29t-20 35t-19 34z" />
<glyph unicode="roundedquora" d="M1268 1434q86 0 162 -33t133 -90t90 -133t33 -162v-836q0 -86 -33 -163t-90 -134t-133 -90t-162 -33h-838q-86 0 -162 33t-133 90t-90 134t-33 163v836q0 86 33 162t90 133t133 90t162 33h838zM1178 220q-14 -4 -32 4q-16 6 -37 21t-43 45q88 58 143 150t59 204 q2 88 -28 165t-85 135t-130 91t-161 33q-88 0 -165 -33t-135 -91t-94 -135t-38 -165q-4 -88 26 -165t85 -135t130 -91t161 -33q62 0 120 18q18 -30 44 -62q28 -34 59 -43t59 -5q32 4 62 18v74zM868 964q44 0 82 -25t66 -67t43 -99t13 -121q-2 -70 -23 -129t-55 -103 q-30 44 -63 60t-61 18q-34 2 -66 -10v-74q14 4 26 2q10 -2 23 -9t25 -23q6 -8 11 -16t9 -18q-30 -10 -52 -10q-46 0 -84 25t-66 67t-43 99t-13 121t21 121t50 99t71 67t86 25z" />
<glyph unicode="roundedreddit" d="M1122 868q-30 0 -52 22t-22 54q0 30 22 52t52 22t51 -22t21 -52q0 -32 -21 -54t-51 -22zM480 688q-70 -54 -100 -128q-30 26 -30 62q0 34 25 58t59 24q26 0 46 -16zM814 724q80 0 152 -21t125 -56t84 -83t31 -102t-31 -101t-84 -83t-125 -56t-152 -20q-82 0 -153 20 t-124 56t-84 83t-31 101t31 102t84 83t124 56t153 21zM598 540q0 -24 17 -42t41 -18q26 0 43 18t17 42q0 26 -17 44t-43 18q-24 0 -41 -18t-17 -44zM1010 332q18 18 0 36t-36 0t-58 -30t-96 -12q-58 0 -96 12q-40 12 -58 30t-36 0t0 -36q28 -30 80 -44q52 -16 110 -16 t110 16q50 14 80 44zM984 480q26 0 43 18t17 42q0 26 -17 44t-43 18q-24 0 -41 -18t-17 -44q0 -24 17 -42t41 -18zM1210 704q36 0 60 -24t24 -58q0 -48 -42 -70q-26 72 -96 130q22 22 54 22zM1268 1434q86 0 162 -33t133 -90t90 -133t33 -162v-836q0 -86 -33 -163t-90 -134 t-133 -90t-162 -33h-838q-86 0 -162 33t-133 90t-90 134t-33 163v836q0 86 33 162t90 133t133 90t162 33h838zM1266 502q34 16 56 48t22 72q0 56 -39 95t-95 39q-28 0 -53 -12t-43 -30q-56 34 -125 55t-147 25l26 184l130 -30v-4q0 -54 36 -91t88 -37t87 37t35 91 q0 52 -35 89t-87 37q-40 0 -70 -22t-44 -56l-154 36q-8 2 -18 -4q-8 -4 -8 -14l-32 -216q-78 -2 -147 -22t-125 -54q-38 38 -90 38q-56 0 -95 -39t-39 -95q0 -36 18 -66t46 -48q-6 -22 -6 -46q0 -70 36 -130t98 -105t145 -71t177 -26t177 26t145 71t98 105t36 130 q0 10 -1 20t-3 20z" />
<glyph unicode="roundedretweet" d="M1268 1434q86 0 162 -33t133 -90t90 -133t33 -162v-836q0 -86 -33 -163t-90 -134t-133 -90t-162 -33h-838q-86 0 -162 33t-133 90t-90 134t-33 163v836q0 86 33 162t90 133t133 90t162 33h838zM1006 284l-156 156h-158v210h158l-262 262l-262 -262h158v-314q0 -20 16 -36 t36 -16h470zM1372 546h-156v320q0 22 -16 34t-38 12h-470l158 -158h156v-208h-156l260 -262z" />
<glyph unicode="roundedrss" d="M1268 1434q86 0 162 -33t133 -90t90 -133t33 -162v-836q0 -86 -33 -163t-90 -134t-133 -90t-162 -33h-838q-86 0 -162 33t-133 90t-90 134t-33 163v836q0 86 33 162t90 133t133 90t162 33h838zM484 126q42 0 73 31t31 75q0 42 -31 73t-73 31q-44 0 -75 -31t-31 -73 q0 -44 31 -75t75 -31zM954 126q0 120 -45 225t-123 183t-183 123t-225 45v-192q80 0 150 -30t122 -82t82 -122t30 -150h192zM1320 126q0 194 -74 366t-202 300t-300 202t-366 74v-196q154 0 290 -59t237 -160t160 -237t59 -290h196z" />
<glyph unicode="roundedscribd" d="M1268 1434q86 0 162 -33t133 -90t90 -133t33 -162v-836q0 -86 -33 -163t-90 -134t-133 -90t-162 -33h-838q-86 0 -162 33t-133 90t-90 134t-33 163v836q0 86 33 162t90 133t133 90t162 33h838zM970 178q6 6 12 13t12 13q-28 50 -28 104q0 50 19 91t53 69v6q-14 44 -48 86 q-32 40 -80 74q-46 32 -136 72q-46 20 -76 38t-50 34q-36 32 -36 76q0 48 42 82q42 30 110 30q48 0 84 -16q-10 -24 -10 -44q0 -46 31 -77t75 -31t74 31t30 77q0 48 -36 80q-48 54 -110 80q-78 34 -150 34q-112 0 -192 -72q-78 -72 -78 -172q0 -44 14 -80q8 -18 18 -37 t26 -37q32 -38 72 -64q22 -14 50 -29t68 -31q38 -16 66 -30t46 -28q32 -24 58 -62q24 -40 24 -78q0 -64 -46 -106t-112 -42q-94 0 -158 74q32 32 32 78t-30 77t-74 31t-75 -31t-31 -77q0 -16 6 -28l-4 -2q48 -126 136 -194q88 -64 202 -64t200 82zM1146 184q52 0 87 36 t35 88t-35 89t-87 37q-50 0 -85 -37t-35 -89t35 -88t85 -36z" />
<glyph unicode="roundedsharethis" d="M1268 1434q86 0 162 -33t133 -90t90 -133t33 -162v-836q0 -86 -33 -163t-90 -134t-133 -90t-162 -33h-838q-86 0 -162 33t-133 90t-90 134t-33 163v836q0 86 33 162t90 133t133 90t162 33h838zM710 608l336 168q22 -18 49 -29t59 -11q70 0 118 48t48 118t-48 118t-118 48 t-118 -48t-48 -118v-10l-336 -168q-22 18 -49 29t-59 11q-70 0 -118 -48t-48 -118t48 -118t118 -48q62 0 108 40l336 -170v-8q0 -70 48 -119t118 -49t118 49t48 119q0 68 -48 117t-118 49q-32 0 -59 -11t-49 -29l-336 168v10v10z" />
<glyph unicode="roundedskype" d="M1268 1434q86 0 162 -33t133 -90t90 -133t33 -162v-836q0 -86 -33 -163t-90 -134t-133 -90t-162 -33h-838q-86 0 -162 33t-133 90t-90 134t-33 163v836q0 86 33 162t90 133t133 90t162 33h838zM904 128q74 4 141 37t112 83t62 112t-9 126q-26 62 -73 100t-107 61t-127 38 t-135 31t-87 50t-4 67t58 58t97 25t95 -25t74 -53t59 -51t50 -19q24 2 44 21t27 46t-4 60t-49 67q-66 58 -153 86t-215 16q-50 -4 -97 -23t-85 -52t-63 -82t-31 -113t25 -112t81 -83t113 -56t121 -29q42 -6 86 -19t74 -35t37 -52t-27 -70q-30 -36 -72 -46t-83 -5t-76 18 t-49 23q-16 10 -33 30t-36 39t-43 34t-52 13q-30 -2 -50 -21t-26 -48t6 -63t48 -68q32 -30 67 -54t79 -39t100 -21t130 -2z" />
<glyph unicode="roundedslashdot" d="M1268 1434q86 0 162 -33t133 -90t90 -133t33 -162v-836q0 -86 -33 -163t-90 -134t-133 -90t-162 -33h-838q-86 0 -162 33t-133 90t-90 134t-33 163v836q0 86 33 162t90 133t133 90t162 33h838zM692 180l366 836h-208l-366 -836h208zM1084 180q54 0 93 38t39 92t-39 92 t-93 38t-92 -38t-38 -92t38 -92t92 -38z" />
<glyph unicode="roundedslideshare" d="M1268 1434q86 0 162 -33t133 -90t90 -133t33 -162v-836q0 -86 -33 -163t-90 -134t-133 -90t-162 -33h-838q-86 0 -162 33t-133 90t-90 134t-33 163v836q0 86 33 162t90 133t133 90t162 33h838zM1008 912q-46 0 -79 -34t-33 -84q0 -48 33 -82t79 -34t79 34t33 82 q0 50 -33 84t-79 34zM702 912q-46 0 -79 -34t-33 -84q0 -48 33 -82t79 -34t79 34t33 82q0 50 -33 84t-79 34zM1356 664q16 32 15 44t-3 16q0 4 -6 4q-14 0 -34 -22q-12 -16 -43 -32t-65 -29t-64 -22t-38 -9h-166q-30 0 -62 -8t-32 -24v-28q-6 4 -12 10q-18 18 -40 31t-56 13 h-6h-16q-44 0 -108 6t-108 16q-24 6 -53 23t-57 35q-24 14 -43 25t-29 11q-2 0 -2 -2q-6 -16 2 -31t30 -43l10 -10q12 -16 43 -35t62 -35t56 -26l25 -10l2 -2v-188q0 -20 18 -44t43 -44t53 -33t48 -13q40 0 68 22t28 42v180l6 -4q14 -10 36 -12v-164q0 -10 7 -25t24 -30 t46 -26t71 -11t70 22t44 51t22 55t6 34v174l2 2q14 8 27 14t27 12q46 22 87 48t65 72z" />
<glyph unicode="roundedsmugmug" d="M1268 1434q86 0 162 -33t133 -90t90 -133t33 -162v-836q0 -86 -33 -163t-90 -134t-133 -90t-162 -33h-838q-86 0 -162 33t-133 90t-90 134t-33 163v836q0 86 33 162t90 133t133 90t162 33h838zM1120 1018q-40 0 -67 -21t-27 -51q0 -28 27 -49t67 -21t67 21t27 49 q0 30 -27 51t-67 21zM696 1018q-40 0 -68 -21t-28 -51q0 -28 28 -49t68 -21t67 21t27 49q0 30 -27 51t-67 21zM796 74q104 0 187 38t147 97t110 130t75 136t43 115t14 68q0 26 -11 41t-25 23q-16 8 -34 12h-806q-6 -2 -14 -8q-6 -6 -15 -16t-17 -28q-44 -88 -54 -193 t27 -198t127 -155t246 -62zM530 286q-24 40 -34 87t-8 95t15 92t31 80h740q-6 -24 -22 -68t-43 -96t-65 -107t-89 -100t-116 -73t-143 -28q-34 0 -71 5t-73 18t-68 36t-54 59z" />
<glyph unicode="roundedsoundcloud" d="M1268 1434q86 0 162 -33t133 -90t90 -133t33 -162v-836q0 -86 -33 -163t-90 -134t-133 -90t-162 -33h-838q-86 0 -162 33t-133 90t-90 134t-33 163v836q0 86 33 162t90 133t133 90t162 33h838zM372 582q-42 -36 -42 -88q0 -54 42 -86v174zM458 608h-10q-10 0 -17 -1 t-17 -3v-220q10 -2 17 -3t17 -1h10v228zM546 668q-26 -32 -36 -78q-2 2 -4 3t-4 3v-216h44v288zM632 730q-12 -4 -23 -10t-21 -12v-328h44v350zM720 736q-8 2 -14 3t-14 1q-4 0 -8 -1t-8 -1v-358h44v356zM806 740q-4 -8 -10 -14t-10 -12q-22 12 -44 18v-352h64v360z M1242 380q64 4 95 40t31 86q0 52 -35 88t-89 36q-22 0 -48 -10q-10 82 -72 139t-148 57q-44 0 -81 -15t-67 -41v-380h414z" />
<glyph unicode="roundedspotify" d="M1268 1434q86 0 162 -33t133 -90t90 -133t33 -162v-836q0 -86 -33 -163t-90 -134t-133 -90t-162 -33h-838q-86 0 -162 33t-133 90t-90 134t-33 163v836q0 86 33 162t90 133t133 90t162 33h838zM388 992q-28 -18 -28 -48q0 -24 17 -41t41 -17q4 0 6 1t6 1q96 38 197 58 t209 20t209 -20t195 -58q4 0 7 -1t7 -1q24 0 40 17t16 41q0 36 -32 48q-102 40 -213 62t-229 22q-120 0 -232 -22t-216 -62zM836 782q96 0 187 -20t175 -56q4 0 5 -1t5 -1q10 0 18 5t14 11l6 24q0 18 -12 28q-92 40 -191 62t-207 22t-207 -22t-191 -62q-14 -14 -14 -28 l8 -22q10 -16 30 -16q10 0 14 2q170 74 360 74zM1182 550q8 16 0 31t-20 19q-74 38 -156 55t-170 17q-178 0 -332 -74q-6 -4 -14 -15t0 -31q8 -22 20 -24t20 2q146 68 306 68q80 0 154 -17t144 -47q34 -16 48 16zM1234 118q40 0 75 15t63 39q-36 70 -90 128t-121 99t-145 64 t-162 23q-88 0 -168 -24t-149 -68t-123 -106t-88 -136q50 -34 110 -34h128q50 68 125 108t165 40t166 -40t124 -108h90z" />
<glyph unicode="roundedsquidoo" d="M1268 1434q86 0 162 -33t133 -90t90 -133t33 -162v-836q0 -86 -33 -163t-90 -134t-133 -90t-162 -33h-838q-86 0 -162 33t-133 90t-90 134t-33 163v836q0 86 33 162t90 133t133 90t162 33h838zM1048 126q50 0 102 28t93 75t62 110t11 135t-44 114t-75 64t-82 29t-65 9 q-50 2 -42 47t50 117q14 26 18 58t-5 61t-29 54t-52 37h-108q28 0 51 -24t39 -54t5 -62t-31 -58q-24 -32 -60 -60q-2 16 -14 48t-39 70t-70 76t-107 64h-84q-6 0 -12 2t-14 2q32 -32 67 -54t63 -38q32 -18 49 -51t25 -67q8 -38 10 -80q-26 0 -56 8q-28 6 -63 17t-77 29 q-32 14 -50 37t-29 50t-18 57t-17 60q-16 -12 -28 -26t-22 -30q6 -16 11 -35t11 -41q18 -76 61 -128t89 -86q52 -38 116 -62q-52 -12 -104 -20q-44 -8 -90 -13t-80 -1q-12 2 -24 7t-12 13v-110q58 -16 132 -12t144 8q54 2 74 -19t25 -52t5 -69t14 -72q38 -94 109 -128 t167 -34zM1108 602q36 -12 62 -37t40 -58t15 -71t-13 -76t-40 -68t-58 -48t-68 -23t-72 7t-62 36t-40 57t-16 71t12 78q14 38 40 68t58 48t69 23t73 -7zM1084 328q34 0 57 25t23 61q0 30 -17 53t-45 31q-6 -30 -24 -42q-12 -10 -30 -11t-36 1q-6 -16 -6 -32q0 -36 22 -61 t56 -25z" />
<glyph unicode="roundedstackoverflow" d="M1268 1434q86 0 162 -33t133 -90t90 -133t33 -162v-836q0 -86 -33 -163t-90 -134t-133 -90t-162 -33h-838q-86 0 -162 33t-133 90t-90 134t-33 163v836q0 86 33 162t90 133t133 90t162 33h838zM784 842l326 -264l66 80l-326 264zM666 620l376 -184l46 94l-376 184z M598 378l408 -94l24 102l-408 94zM588 126h418v106h-418v-106zM1216 546h-106v-472h-626v472h-106v-576h838v576zM1290 764l-256 330l-82 -64l256 -330zM1426 840l-176 380l-94 -44l176 -380z" />
<glyph unicode="roundedstar" d="M1268 1434q86 0 162 -33t133 -90t90 -133t33 -162v-836q0 -86 -33 -163t-90 -134t-133 -90t-162 -33h-838q-86 0 -162 33t-133 90t-90 134t-33 163v836q0 86 33 162t90 133t133 90t162 33h838zM1294 686q36 40 22 70t-68 30h-232l-112 232q-22 50 -55 50t-55 -50 l-112 -232h-232q-56 0 -69 -30t23 -70l2 -2l178 -216l-90 -262q-18 -52 4 -71t72 5l280 140l278 -140q50 -24 72 -5t4 71l-90 262l178 216z" />
<glyph unicode="roundedstumbleupon" d="M1268 1434q86 0 162 -33t133 -90t90 -133t33 -162v-836q0 -86 -33 -163t-90 -134t-133 -90t-162 -33h-838q-86 0 -162 33t-133 90t-90 134t-33 163v836q0 86 33 162t90 133t133 90t162 33h838zM1372 964h-156v-524q-4 -12 -21 -30t-27 -22h-68q-10 2 -25 18t-17 26v242 q0 20 -6 52t-27 62t-61 51t-108 21h-292q-38 0 -70 -19t-55 -48t-36 -63t-13 -64q0 -34 13 -59t31 -45t39 -34t37 -24l130 -50q16 -12 26 -29t14 -27q-4 -4 -8 -7t-10 -3h-336v-156h336q36 0 67 13t55 36t38 52t14 61q0 52 -34 109t-86 87l-130 52q-18 10 -26 17t-12 11 q4 10 10 19t10 13h288q22 0 34 -4q6 -2 8 -2q0 -2 2 -7t2 -15v-242q0 -36 17 -72t46 -65t64 -46t71 -17h68q36 0 72 19t66 48t48 66t18 73v526z" />
<glyph unicode="roundedtechnorati" d="M902 942q60 0 113 -18t92 -48t62 -71t23 -87t-23 -87t-62 -71t-92 -48t-113 -18t-114 18t-93 48t-62 71t-23 87t23 87t62 71t93 48t114 18zM1268 1434q86 0 162 -33t133 -90t90 -133t33 -162v-836q0 -86 -33 -163t-90 -134t-133 -90t-162 -33h-838q-86 0 -162 33t-133 90 t-90 134t-33 163v836q0 86 33 162t90 133t133 90t162 33h838zM902 314q98 0 183 32t149 86t101 128t37 158t-37 157t-101 127t-149 86t-183 32t-184 -32t-150 -86t-101 -127t-37 -157q0 -80 33 -149t91 -123l-34 -266l222 158q74 -24 160 -24z" />
<glyph unicode="roundedtumblr" d="M1268 1434q86 0 162 -33t133 -90t90 -133t33 -162v-836q0 -86 -33 -163t-90 -134t-133 -90t-162 -33h-838q-86 0 -162 33t-133 90t-90 134t-33 163v836q0 86 33 162t90 133t133 90t162 33h838zM1162 326q-76 -46 -150 -46q-42 0 -74 18q-26 16 -36 42q-4 12 -2 36t2 66 v260h208v158h-208v208h-152q-8 -70 -34 -120q-26 -48 -68 -80q-22 -18 -53 -30t-59 -22v-114h156v-350q0 -52 6 -91t40 -71q16 -16 39 -27t49 -19q28 -10 51 -14t57 -4q60 0 112 12q28 6 56 16t60 24v148z" />
<glyph unicode="roundedtwitterbird" d="M1268 1436q86 0 162 -33t133 -90t90 -133t33 -162v-836q0 -86 -33 -163t-90 -134t-133 -90t-162 -33h-838q-86 0 -162 33t-133 90t-90 134t-33 163v836q0 86 33 162t90 133t133 90t162 33h838zM1248 806q58 40 102 104q-28 -12 -57 -20t-59 -12q66 42 88 114 q-60 -38 -128 -50q-60 64 -150 64q-42 0 -79 -16t-64 -44t-43 -65t-16 -79q0 -12 1 -23t3 -23q-126 6 -234 63t-184 149q-28 -46 -28 -102q0 -52 25 -96t65 -72q-24 0 -47 7t-45 17v-2q0 -74 47 -129t117 -71q-28 -6 -54 -6h-19t-19 4q20 -62 71 -101t119 -41 q-52 -40 -117 -64t-135 -24q-14 0 -26 1t-24 3q68 -44 147 -68t165 -24q140 0 248 53t181 136t111 186t38 205v26z" />
<glyph unicode="roundedtwitter" d="M1268 1434q86 0 162 -33t133 -90t90 -133t33 -162v-836q0 -86 -33 -163t-90 -134t-133 -90t-162 -33h-838q-86 0 -162 33t-133 90t-90 134t-33 163v836q0 86 33 162t90 133t133 90t162 33h838zM796 336q-40 0 -72 32t-32 72v158h418q40 0 73 32t33 72t-33 72t-73 32h-418 v158q0 40 -32 72t-72 32t-72 -32t-32 -72v-524q0 -78 27 -137t71 -98t100 -59t114 -20h314q40 0 73 33t33 73t-33 72t-73 32h-314z" />
<glyph unicode="roundedviddler" d="M1268 1434q86 0 162 -33t133 -90t90 -133t33 -162v-836q0 -86 -33 -163t-90 -134t-133 -90t-162 -33h-838q-86 0 -162 33t-133 90t-90 134t-33 163v836q0 86 33 162t90 133t133 90t162 33h838zM1092 546q48 0 89 18t72 49t49 73t18 92t-18 92t-49 74t-72 50t-89 18 q-42 0 -80 -17t-68 -46t-50 -66t-26 -77h-8q-6 40 -26 77t-50 66t-68 46t-80 17q-48 0 -93 -19t-80 -51t-56 -75t-21 -93t17 -91t45 -71t64 -48t76 -18h52v-94l-262 74v-318l262 82v-110h382l-112 366h182zM1096 842q28 0 47 -20t19 -48t-19 -48t-47 -20q-26 0 -45 20 t-19 48t19 48t45 20zM636 842q28 0 46 -20t18 -48t-18 -48t-46 -20t-46 20t-18 48t18 48t46 20z" />
<glyph unicode="roundedvimeo" d="M1268 1434q86 0 162 -33t133 -90t90 -133t33 -162v-836q0 -86 -33 -163t-90 -134t-133 -90t-162 -33h-838q-86 0 -162 33t-133 90t-90 134t-33 163v836q0 86 33 162t90 133t133 90t162 33h838zM1314 776q14 70 -7 113t-62 61t-93 12t-100 -32t-86 -71t-48 -107 q40 24 70 21t46 -22t15 -52t-21 -69q-40 -74 -75 -118t-57 -44q-20 0 -37 46t-39 134q-12 44 -20 101t-23 106t-42 79t-75 22q-46 -10 -95 -43t-91 -69q-50 -42 -96 -94l38 -48q22 16 44 26q18 10 35 12t27 -8q6 -8 18 -40t27 -77t32 -97t32 -100t29 -86t22 -54 q12 -22 32 -45t46 -37t56 -16t64 18q32 20 97 73t133 130t126 173t78 202z" />
<glyph unicode="roundedvirb" d="M1268 1434q86 0 162 -33t133 -90t90 -133t33 -162v-836q0 -86 -33 -163t-90 -134t-133 -90t-162 -33h-838q-86 0 -162 33t-133 90t-90 134t-33 163v836q0 86 33 162t90 133t133 90t162 33h838zM1110 964h-208l-158 -470l-164 470h-202l262 -732h210zM1268 754q44 0 74 31 t30 75q0 42 -30 73t-74 31t-75 -31t-31 -73q0 -44 31 -75t75 -31z" />
<glyph unicode="roundedwww" d="M1268 1434q86 0 162 -33t133 -90t90 -133t33 -162v-836q0 -86 -33 -163t-90 -134t-133 -90t-162 -33h-838q-86 0 -162 33t-133 90t-90 134t-33 163v836q0 86 33 162t90 133t133 90t162 33h838zM1272 300q48 66 48 166q0 40 -11 75t-29 65q-16 30 -46 50t-64 32l112 230 v46h-214h-92l-124 -446l-126 446h-90l42 -146l-84 -300l-126 446h-90l208 -694h8l128 452l130 -452h8l178 612h8h146l-146 -228v-16h60q34 0 57 -17t39 -39q14 -18 21 -50t7 -66q0 -56 -26 -102q-24 -42 -62 -42q-34 0 -58 24q-26 24 -42 64l-70 -30q20 -70 66 -108 q42 -40 104 -40q80 0 130 68z" />
<glyph unicode="roundedwikipedia" d="M1268 1434q86 0 162 -33t133 -90t90 -133t33 -162v-836q0 -86 -33 -163t-90 -134t-133 -90t-162 -33h-838q-86 0 -162 33t-133 90t-90 134t-33 163v836q0 86 33 162t90 133t133 90t162 33h838zM1372 962l-2 2h-216l-4 -2v-22q0 -2 4 -6q2 -2 6 -2l18 -2q16 0 23 -4 t13 -10q14 -10 4 -42l-192 -502l-6 2l-122 274q0 2 1 3t1 3v2l100 204q10 16 17 30t11 20q8 14 15 17t29 5q10 0 10 8v22l-2 2h-176l-4 -2v-22q0 -2 4 -6q2 -2 6 -2l8 -2q30 0 36 -10q4 -6 5 -15t-9 -31l-78 -168l-68 156q-16 38 -18 51t24 17l14 2q8 0 8 8v22l-4 2h-186 l-4 -2v-22q0 -8 14 -8q12 -2 19 -5t13 -10t13 -22t19 -41q2 -4 4 -10t6 -14t8 -18l72 -156q2 -6 6 -14t7 -17t9 -21l-106 -232l-6 2q-48 110 -88 206q-18 42 -35 85t-34 83t-31 74t-22 58q-6 20 -6 30q0 20 32 20l24 2q10 0 10 8v20l-2 2h-104h-132l-2 -2v-22q0 -6 14 -6 q38 -4 48 -14q8 -8 28 -54q22 -60 54 -138t67 -160t68 -161t57 -139q12 -32 28 -35t38 37q10 20 25 53t32 71t34 77t33 75q14 -36 30 -75t32 -77t29 -70t23 -54q16 -34 33 -36t33 36q12 28 28 68t34 87t38 98t40 99l96 240q12 36 32 52t64 20q8 0 8 8v22z" />
<glyph unicode="roundedwindows" d="M1268 1434q86 0 162 -33t133 -90t90 -133t33 -162v-836q0 -86 -33 -163t-90 -134t-133 -90t-162 -33h-838q-86 0 -162 33t-133 90t-90 134t-33 163v836q0 86 33 162t90 133t133 90t162 33h838zM490 696q84 32 158 32q52 0 93 -17t73 -37l86 290q-14 8 -44 23t-56 21 q-30 8 -70 8q-36 -2 -75 -10t-85 -26zM532 340q56 0 97 -17t75 -39q8 26 21 68t25 86t23 82t17 58q-8 4 -16 10t-16 10q-68 34 -128 34q-10 0 -16 -2q-40 -4 -73 -11t-55 -17l-12 -4t-14 -4l-82 -286q84 32 154 32zM1206 496q-78 -26 -152 -26q-68 0 -114 17t-76 39 l-84 -288q10 -6 29 -15t43 -19t50 -17t50 -7q78 0 176 40zM1320 884q-82 -30 -158 -30q-64 0 -110 17t-76 39l-84 -290q82 -56 182 -56q82 0 160 38v2h4z" />
<glyph unicode="roundedwordpress" d="M1268 1434q86 0 162 -33t133 -90t90 -133t33 -162v-836q0 -86 -33 -163t-90 -134t-133 -90t-162 -33h-838q-86 0 -162 33t-133 90t-90 134t-33 163v836q0 86 33 162t90 133t133 90t162 33h838zM378 650q0 -70 19 -134t54 -119t84 -99t109 -72l-224 616q-20 -46 -31 -93 t-11 -99zM850 180q84 0 156 26q-4 4 -4 6l-144 396l-142 -410q62 -18 134 -18zM1084 364l48 158q34 92 34 152q0 44 -12 75t-26 55q-18 28 -32 55t-14 55q0 32 22 58t56 26q2 0 3 -1t3 -1q-62 58 -143 91t-173 33q-126 0 -228 -58t-166 -154h30h40t42 2l44 4q8 0 14 -5 t6 -12t-4 -14t-14 -7q-8 0 -16 -2q-20 -4 -38 -4l172 -510l104 310l-74 200q-10 0 -18 1t-16 3t-16 2q-10 0 -14 6t-3 14t6 13t15 5l44 -4q18 -2 40 -2h40h39t41 2l44 4q10 0 15 -5t6 -12t-3 -14t-14 -7q-8 0 -16 -2q-20 -4 -38 -4zM1086 244q106 60 170 167t64 239 q0 62 -15 118t-43 108q2 -12 3 -24t1 -24q0 -36 -8 -77t-28 -93z" />
<glyph unicode="roundedxing" d="M1268 1434q86 0 162 -33t133 -90t90 -133t33 -162v-836q0 -86 -33 -163t-90 -134t-133 -90t-162 -33h-838q-86 0 -162 33t-133 90t-90 134t-33 163v836q0 86 33 162t90 133t133 90t162 33h838zM588 388l156 264l-104 208h-210l106 -208l-158 -264h210zM1268 1068h-210 l-314 -574l210 -368h208l-208 368z" />
<glyph unicode="roundedyahoobu&#x7a;&#x7a;" d="M1268 1434q86 0 162 -33t133 -90t90 -133t33 -162v-836q0 -86 -33 -163t-90 -134t-133 -90t-162 -33h-838q-86 0 -162 33t-133 90t-90 134t-33 163v836q0 86 33 162t90 133t133 90t162 33h838zM902 126q64 0 121 25t100 68t68 100t25 121q0 66 -25 123t-68 99t-100 67 t-121 25h-106v-156h106q64 0 110 -46t46 -112q0 -64 -46 -110t-110 -46q-66 0 -112 46t-46 110v158v470h-156v-628q0 -64 25 -121t67 -100t99 -68t123 -25z" />
</font>
</defs>
</svg>
